Advertisement
therealbenizakura

Untitled

Feb 11th, 2021
231
Never
Not a member of Pastebin yet? Sign Up, it unlocks many cool features!
  1. General
  2. Unique ID : 194962608479171729296736038396995126128 (0x92AC6EBCF23160DB57388DF2DE314370)
  3. Format : Matroska
  4. Format version : Version 4
  5. File size : 12.8 GiB
  6. Duration : 1 h 58 min
  7. Overall bit rate : 15.5 Mb/s
  8. Encoded date : UTC 2021-02-11 12:28:16
  9. Writing application : mkvmerge v52.0.0 ('Secret For The Mad') 64-bit
  10. Writing library : libebml v1.4.1 + libmatroska v1.6.2
  11.  
  12. Video
  13. ID : 1
  14. Format : HEVC
  15. Format/Info : High Efficiency Video Coding
  16. Format profile : Main 10@L5@Main
  17. Codec ID : V_MPEGH/ISO/HEVC
  18. Duration : 1 h 58 min
  19. Bit rate : 14.8 Mb/s
  20. Width : 3 840 pixels
  21. Height : 2 160 pixels
  22. Display aspect ratio : 16:9
  23. Frame rate mode : Constant
  24. Frame rate : 23.976 (24000/1001) FPS
  25. Color space : YUV
  26. Chroma subsampling : 4:2:0 (Type 2)
  27. Bit depth : 10 bits
  28. Bits/(Pixel*Frame) : 0.074
  29. Stream size : 12.2 GiB (96%)
  30. Language : English
  31. Default : Yes
  32. Forced : No
  33. Color range : Limited
  34. Color primaries : BT.2020
  35. Transfer characteristics : PQ
  36. Matrix coefficients : BT.2020 non-constant
  37. Maximum Content Light Level : 1000 cd/m2
  38. Maximum Frame-Average Light : 184 cd/m2
  39.  
  40. Audio
  41. ID : 2
  42. Format : E-AC-3
  43. Format/Info : Enhanced AC-3
  44. Commercial name : Dolby Digital Plus
  45. Codec ID : A_EAC3
  46. Duration : 1 h 58 min
  47. Bit rate mode : Constant
  48. Bit rate : 640 kb/s
  49. Channel(s) : 6 channels
  50. Channel layout : L R C LFE Ls Rs
  51. Sampling rate : 48.0 kHz
  52. Frame rate : 31.250 FPS (1536 SPF)
  53. Compression mode : Lossy
  54. Stream size : 542 MiB (4%)
  55. Title : Original
  56. Language : English
  57. Service kind : Complete Main
  58. Default : No
  59. Forced : No
  60.  
  61. Text #1
  62. ID : 3
  63. Format : UTF-8
  64. Codec ID : S_TEXT/UTF8
  65. Codec ID/Info : UTF-8 Plain Text
  66. Duration : 1 h 57 min
  67. Bit rate : 45 b/s
  68. Count of elements : 944
  69. Stream size : 39.3 KiB (0%)
  70. Title : Full
  71. Language : Russian
  72. Default : No
  73. Forced : No
  74.  
  75. Text #2
  76. ID : 4
  77. Format : UTF-8
  78. Codec ID : S_TEXT/UTF8
  79. Codec ID/Info : UTF-8 Plain Text
  80. Duration : 1 h 58 min
  81. Bit rate : 38 b/s
  82. Count of elements : 1358
  83. Stream size : 33.4 KiB (0%)
  84. Title : SDH
  85. Language : English
  86. Default : No
  87. Forced : No
  88.  
  89. Text #3
  90. ID : 5
  91. Format : UTF-8
  92. Codec ID : S_TEXT/UTF8
  93. Codec ID/Info : UTF-8 Plain Text
  94. Duration : 1 h 52 min
  95. Bit rate : 32 b/s
  96. Count of elements : 679
  97. Stream size : 27.1 KiB (0%)
  98. Title : Turkish
  99. Language : Turkish
  100. Default : Yes
  101. Forced : No
  102.  
  103.  
Advertisement
Advertisement
Advertisement
RAW Paste Data Copied
Advertisement