SHARE
TWEET

Untitled

a guest Jul 27th, 2019 87 Never
Not a member of Pastebin yet? Sign Up, it unlocks many cool features!
  1. REM GENRE Rock
  2. REM DATE 1989 / 2019
  3. REM DISCID 19037F04
  4. REM COMMENT "ExactAudioCopy v1.0b3"
  5. PERFORMER "Кино"
  6. TITLE "Maman (Maschina Records, MASHCD-021)"
  7. FILE "Кино - Maman (MASHCD-021).flac" WAVE
  8.   TRACK 01 AUDIO
  9.     TITLE "Мама, мы все тяжело больны"
  10.     PERFORMER "Кино"
  11.     INDEX 01 00:00:00
  12.   TRACK 02 AUDIO
  13.     TITLE "Троллейбус"
  14.     PERFORMER "Кино"
  15.     INDEX 01 03:50:69
  16.   TRACK 03 AUDIO
  17.     TITLE "Электричка (live)"
  18.     PERFORMER "Кино"
  19.     INDEX 01 06:48:06
  20.   TRACK 04 AUDIO
  21.     TITLE "Мама, мы все тяжело больны (live)"
  22.     PERFORMER "Кино"
  23.     INDEX 01 10:03:47
  24.   TRACK 05 AUDIO
  25.     TITLE "Пустой трек"
  26.     PERFORMER "-"
  27.     INDEX 01 13:29:00
  28.   TRACK 06 AUDIO
  29.     TITLE "Наконец-то что-то изменилось..."
  30.     PERFORMER "Виктор Цой"
  31.     INDEX 01 14:29:00
RAW Paste Data
We use cookies for various purposes including analytics. By continuing to use Pastebin, you agree to our use of cookies as described in the Cookies Policy. OK, I Understand
 
Top