Guest User

Untitled

a guest
Jun 16th, 2014
48
Never
Not a member of Pastebin yet? Sign Up, it unlocks many cool features!
  1. General
  2. 16.Ans.Ou.Presque.2013.Blu.Ray.720p.CINEMANIA.mkv
  3. Format : Matroska
  4. Format version : Version 4 / Version 2
  5. File size : 4.60 GiB
  6. Duration : 1h 27mn
  7. Overall bit rate : 7 555 Kbps
  8. Movie name : Release Group CINEMANIA
  9. Encoded date : UTC 2014-06-16 15:14:03
  10. Writing application : mkvmerge v7.0.0 ('Where We Going') 64bit built on Jun 9 2014 15:16:27
  11. Writing library : libebml v1.3.0 + libmatroska v1.4.1
  12.  
  13. Video
  14. ID : 1
  15. Format : AVC
  16. Format/Info : Advanced Video Codec
  17. Format profile : High@L4.1
  18. Format settings, CABAC : Yes
  19. Format settings, ReFrames : 5 frames
  20. Codec ID : V_MPEG4/ISO/AVC
  21. Duration : 1h 27mn
  22. Bit rate : 5 662 Kbps
  23. Width : 1 280 pixels
  24. Height : 536 pixels
  25. Display aspect ratio : 2.40:1
  26. Frame rate mode : Constant
  27. Frame rate : 24.000 fps
  28. Color space : YUV
  29. Chroma subsampling : 4:2:0
  30. Bit depth : 8 bits
  31. Scan type : Progressive
  32. Bits/(Pixel*Frame) : 0.344
  33. Stream size : 3.36 GiB (73%)
  34. Title : Release Group CINEMANIA
  35. Writing library : x264 core 138 r2358 9e941d1
  36. Encoding settings : cabac=1 / ref=5 / deblock=1:0:0 / analyse=0x3:0x113 / me=umh / subme=8 / psy=1 / psy_rd=1.00:0.00 / mixed_ref=1 / me_range=16 / chroma_me=1 / trellis=1 / 8x8dct=1 / cqm=0 / deadzone=21,11 / fast_pskip=0 / chroma_qp_offset=-2 / threads=18 / lookahead_threads=3 / sliced_threads=0 / nr=0 / decimate=1 / interlaced=0 / bluray_compat=0 / constrained_intra=0 / bframes=3 / b_pyramid=2 / b_adapt=2 / b_bias=0 / direct=3 / weightb=1 / open_gop=0 / weightp=2 / keyint=250 / keyint_min=23 / scenecut=40 / intra_refresh=0 / rc_lookahead=50 / rc=2pass / mbtree=1 / bitrate=5662 / ratetol=1.0 / qcomp=0.60 / qpmin=0 / qpmax=69 / qpstep=4 / cplxblur=20.0 / qblur=0.5 / ip_ratio=1.40 / aq=1:1.00
  37. Default : Yes
  38. Forced : No
  39.  
  40. Audio #1
  41. ID : 2
  42. Format : AC-3
  43. Format/Info : Audio Coding 3
  44. Mode extension : CM (complete main)
  45. Format settings, Endianness : Big
  46. Codec ID : A_AC3
  47. Duration : 1h 27mn
  48. Bit rate mode : Constant
  49. Bit rate : 384 Kbps
  50. Channel(s) : 6 channels
  51. Channel positions : Front: L C R, Side: L R, LFE
  52. Sampling rate : 48.0 KHz
  53. Bit depth : 16 bits
  54. Compression mode : Lossy
  55. Stream size : 240 MiB (5%)
  56. Title : Лицензия
  57. Language : Russian
  58. Default : Yes
  59. Forced : Yes
  60.  
  61. Audio #2
  62. ID : 3
  63. Format : DTS
  64. Format/Info : Digital Theater Systems
  65. Mode : 16
  66. Format settings, Endianness : Big
  67. Codec ID : A_DTS
  68. Duration : 1h 27mn
  69. Bit rate mode : Constant
  70. Bit rate : 1 509 Kbps
  71. Channel(s) : 6 channels
  72. Channel positions : Front: L C R, Side: L R, LFE
  73. Sampling rate : 48.0 KHz
  74. Bit depth : 24 bits
  75. Compression mode : Lossy
  76. Stream size : 941 MiB (20%)
  77. Language : French
  78. Default : No
  79. Forced : No
  80.  
  81. Menu
  82. 00:00:00.000 : fr:
  83. 00:08:10.916 : fr:
  84. 00:15:15.458 : fr:
  85. 00:22:23.416 : fr:
  86. 00:29:25.250 : fr:
  87. 00:36:54.041 : fr:
  88. 00:44:58.708 : fr:
  89. 00:50:40.500 : fr:
  90. 00:59:41.666 : fr:
  91. 01:05:33.000 : fr:
  92. 01:08:41.458 : fr:
  93. 01:16:45.000 : fr:
  94. 01:27:09.750 : fr:
RAW Paste Data