fant0men

RARBG H264 AAC bitrate

Aug 30th, 2019
249
Never
Not a member of Pastebin yet? Sign Up, it unlocks many cool features!
  1. Input #0, matroska,webm, from 'The.Exorcist.1973.DC.1080p.BluRay.H264.AAC-RARBG.mkv':
  2. Metadata:
  3. encoder : libebml v1.3.7 + libmatroska v1.5.0
  4. creation_time : 2019-08-30T08:06:14.000000Z
  5. Duration: 02:12:21.18, start: 0.000000, bitrate: 2725 kb/s
  6. Stream #0:0: Video: h264 (High), yuv420p(progressive), 1920x1080 [SAR 1:1 DAR 16:9], 23.98 fps, 23.98 tbr, 1k tbn, 47.95 tbc (default)
  7. Metadata:
  8. BPS-eng : 2499189
  9. DURATION-eng : 02:12:21.066000000
  10. NUMBER_OF_FRAMES-eng: 190395
  11. NUMBER_OF_BYTES-eng: 2480778905
  12. _STATISTICS_WRITING_APP-eng: mkvmerge v34.0.0 ('Sight and Seen') 64-bit
  13. _STATISTICS_WRITING_DATE_UTC-eng: 2019-08-30 08:06:14
  14. _STATISTICS_TAGS-eng: BPS DURATION NUMBER_OF_FRAMES NUMBER_OF_BYTES
  15. Stream #0:1(eng): Audio: aac (LC), 48000 Hz, stereo, fltp (default)
  16. Metadata:
  17. BPS-eng : 224000
  18. DURATION-eng : 02:12:21.184000000
  19. NUMBER_OF_FRAMES-eng: 372243
  20. NUMBER_OF_BYTES-eng: 222353153
  21. _STATISTICS_WRITING_APP-eng: mkvmerge v34.0.0 ('Sight and Seen') 64-bit
  22. _STATISTICS_WRITING_DATE_UTC-eng: 2019-08-30 08:06:14
  23. _STATISTICS_TAGS-eng: BPS DURATION NUMBER_OF_FRAMES NUMBER_OF_BYTES
  24. Stream #0:2(eng): Subtitle: subrip (default)
  25. Metadata:
  26. BPS-eng : 49
  27. DURATION-eng : 02:10:09.760000000
  28. NUMBER_OF_FRAMES-eng: 1474
  29. NUMBER_OF_BYTES-eng: 48153
  30. _STATISTICS_WRITING_APP-eng: mkvmerge v34.0.0 ('Sight and Seen') 64-bit
  31. _STATISTICS_WRITING_DATE_UTC-eng: 2019-08-30 08:06:14
  32. _STATISTICS_TAGS-eng: BPS DURATION NUMBER_OF_FRAMES NUMBER_OF_BYTES
  33. At least one output file must be specified
RAW Paste Data