SHARE
TWEET

Love, Death Robots: Season 1 1080p WEB-DL

dirtyharrys Apr 17th, 2019 91 Never
Not a member of Pastebin yet? Sign Up, it unlocks many cool features!
  1. General
  2. Unique ID                   : 262019511682409941964678029143761832946 (0xC51F1F52BDDD0BF789ED115BA4F94BF2)
  3. Complete name               : E:\LDaRS01E01.mkv
  4. Format                      : Matroska
  5. Format version              : Version 4
  6. File size                   : 929 MiB
  7. Duration                    : 17 min 14 s
  8. Overall bit rate mode       : Variable
  9. Overall bit rate            : 7 532 kb/s
  10. Movie name                  : Love Death and Robots S01E01 / Love Death and Robots: Season One
  11. Description                 : Episode 01: "Sonnie's Edge"
  12. Encoded date                : UTC 2019-04-13 07:11:34
  13. Writing application         : mkvmerge v30.1.0 ('Forever And More') 32-bit
  14. Writing library             : libebml v1.3.6 + libmatroska v1.4.9
  15. Copyright                   : Movies HDs 2018
  16. ARTIST                      : HarshLearner
  17.  
  18. Video
  19. ID                          : 1
  20. Format                      : AVC
  21. Format/Info                 : Advanced Video Codec
  22. Format profile              : Main@L4
  23. Format settings             : CABAC / 3 Ref Frames
  24. Format settings, CABAC      : Yes
  25. Format settings, ReFrames   : 3 frames
  26. Codec ID                    : V_MPEG4/ISO/AVC
  27. Duration                    : 17 min 14 s
  28. Bit rate mode               : Variable
  29. Bit rate                    : 6 698 kb/s
  30. Nominal bit rate            : 7 150 kb/s
  31. Maximum bit rate            : 10.7 Mb/s
  32. Width                       : 1 920 pixels
  33. Height                      : 1 080 pixels
  34. Display aspect ratio        : 16:9
  35. Frame rate mode             : Constant
  36. Frame rate                  : 24.000 FPS
  37. Color space                 : YUV
  38. Chroma subsampling          : 4:2:0
  39. Bit depth                   : 8 bits
  40. Scan type                   : Progressive
  41. Bits/(Pixel*Frame)          : 0.135
  42. Stream size                 : 826 MiB (89%)
  43. Title                       : Love Death and Robots S01E01
  44. Writing library             : x264 core 148 r2715 7e75228
  45. Default                     : Yes
  46. Forced                      : No
  47.  
  48. Audio #1
  49. ID                          : 2
  50. Format                      : E-AC-3 JOC
  51. Format/Info                 : Enhanced AC-3 with Joint Object Coding
  52. Commercial name             : Dolby Digital Plus with Dolby Atmos
  53. Codec ID                    : A_EAC3
  54. Duration                    : 17 min 14 s
  55. Bit rate mode               : Constant
  56. Bit rate                    : 448 kb/s
  57. Channel(s)                  : 6 channels
  58. Channel layout              : L R C LFE Ls Rs
  59. Sampling rate               : 48.0 kHz
  60. Frame rate                  : 31.250 FPS (1536 SPF)
  61. Compression mode            : Lossy
  62. Stream size                 : 55.2 MiB (6%)
  63. Title                       : English
  64. Language                    : English
  65. Service kind                : Complete Main
  66. Default                     : No
  67. Forced                      : No
  68. Complexity index            : 16
  69. Number of dynamic objects   : 15
  70. Bed channel count           : 1 channel
  71. Bed channel configuration   : LFE
  72.  
  73. Audio #2
  74. ID                          : 3
  75. Format                      : AC-3
  76. Format/Info                 : Audio Coding 3
  77. Commercial name             : Dolby Digital
  78. Codec ID                    : A_AC3
  79. Duration                    : 17 min 14 s
  80. Bit rate mode               : Constant
  81. Bit rate                    : 384 kb/s
  82. Channel(s)                  : 6 channels
  83. Channel layout              : L R C LFE Ls Rs
  84. Sampling rate               : 48.0 kHz
  85. Frame rate                  : 31.250 FPS (1536 SPF)
  86. Bit depth                   : 16 bits
  87. Compression mode            : Lossy
  88. Stream size                 : 47.4 MiB (5%)
  89. Language                    : Spanish
  90. Service kind                : Complete Main
  91. Default                     : Yes
  92. Forced                      : Yes
  93.  
  94. Text #1
  95. ID                          : 4
  96. Format                      : UTF-8
  97. Codec ID                    : S_TEXT/UTF8
  98. Codec ID/Info               : UTF-8 Plain Text
  99. Duration                    : 14 min 1 s
  100. Bit rate                    : 41 b/s
  101. Count of elements           : 165
  102. Stream size                 : 4.29 KiB (0%)
  103. Language                    : English
  104. Default                     : No
  105. Forced                      : No
  106.  
  107. Text #2
  108. ID                          : 5
  109. Format                      : UTF-8
  110. Codec ID                    : S_TEXT/UTF8
  111. Codec ID/Info               : UTF-8 Plain Text
  112. Duration                    : 14 min 52 s
  113. Bit rate                    : 50 b/s
  114. Count of elements           : 206
  115. Stream size                 : 5.52 KiB (0%)
  116. Title                       : SDH
  117. Language                    : English
  118. Default                     : No
  119. Forced                      : No
  120.  
  121. Text #3
  122. ID                          : 6
  123. Format                      : UTF-8
  124. Codec ID                    : S_TEXT/UTF8
  125. Codec ID/Info               : UTF-8 Plain Text
  126. Duration                    : 15 min 24 s
  127. Bit rate                    : 37 b/s
  128. Count of elements           : 162
  129. Stream size                 : 4.27 KiB (0%)
  130. Language                    : Spanish
  131. Default                     : Yes
  132. Forced                      : Yes
  133.  
  134. Text #4
  135. ID                          : 7
  136. Format                      : UTF-8
  137. Codec ID                    : S_TEXT/UTF8
  138. Codec ID/Info               : UTF-8 Plain Text
  139. Duration                    : 15 min 24 s
  140. Bit rate                    : 41 b/s
  141. Count of elements           : 158
  142. Stream size                 : 4.72 KiB (0%)
  143. Language                    : French
  144. Default                     : No
  145. Forced                      : No
  146.  
  147. Text #5
  148. ID                          : 8
  149. Format                      : UTF-8
  150. Codec ID                    : S_TEXT/UTF8
  151. Codec ID/Info               : UTF-8 Plain Text
  152. Duration                    : 15 min 24 s
  153. Bit rate                    : 39 b/s
  154. Count of elements           : 162
  155. Stream size                 : 4.45 KiB (0%)
  156. Title                       : Brazilian
  157. Language                    : Portuguese
  158. Default                     : No
  159. Forced                      : No
RAW Paste Data
We use cookies for various purposes including analytics. By continuing to use Pastebin, you agree to our use of cookies as described in the Cookies Policy. OK, I Understand
 
Top