SHARE
TWEET

Gloria Bell BluRay 720p

dirtyharrys Jun 7th, 2019 81 Never
Not a member of Pastebin yet? Sign Up, it unlocks many cool features!
  1. General
  2. Unique ID                   : 280334764096983124407619947150321228764 (0xD2E682FC53D302CF47C2E50C36E59BDC)
  3. Complete name               : E:\QlJSR2xvcmlhQmVsbA.mkv
  4. Format                      : Matroska
  5. Format version              : Version 4
  6. File size                   : 1.38 GiB
  7. Duration                    : 1 h 41 min
  8. Overall bit rate            : 1 949 kb/s
  9. Movie name                  : Gloria Bell BR-RIP / Gloria Bell BR-RIP
  10. Encoded date                : UTC 2019-06-06 07:49:49
  11. Writing application         : mkvmerge v30.1.0 ('Forever And More') 32-bit
  12. Writing library             : libebml v1.3.6 + libmatroska v1.4.9
  13. Copyright                   : Movies HDs 2019
  14. ARTIST                      : HarshLearner
  15.  
  16. Video
  17. ID                          : 1
  18. Format                      : AVC
  19. Format/Info                 : Advanced Video Codec
  20. Format profile              : High@L4.1
  21. Format settings             : CABAC / 4 Ref Frames
  22. Format settings, CABAC      : Yes
  23. Format settings, ReFrames   : 4 frames
  24. Codec ID                    : V_MPEG4/ISO/AVC
  25. Duration                    : 1 h 41 min
  26. Bit rate                    : 1 500 kb/s
  27. Width                       : 1 280 pixels
  28. Height                      : 536 pixels
  29. Display aspect ratio        : 2.40:1
  30. Frame rate mode             : Constant
  31. Frame rate                  : 23.976 (24000/1001) FPS
  32. Original frame rate         : 23.976 (23976/1000) FPS
  33. Color space                 : YUV
  34. Chroma subsampling          : 4:2:0
  35. Bit depth                   : 8 bits
  36. Scan type                   : Progressive
  37. Bits/(Pixel*Frame)          : 0.091
  38. Stream size                 : 1.07 GiB (77%)
  39. Title                       : Gloria Bell
  40. Writing library             : x264 core 152 r2851M ba24899
  41. Default                     : Yes
  42. Forced                      : No
  43.  
  44. Audio
  45. ID                          : 2
  46. Format                      : AC-3
  47. Format/Info                 : Audio Coding 3
  48. Commercial name             : Dolby Digital
  49. Codec ID                    : A_AC3
  50. Duration                    : 1 h 41 min
  51. Bit rate mode               : Constant
  52. Bit rate                    : 448 kb/s
  53. Channel(s)                  : 6 channels
  54. Channel layout              : L R C LFE Ls Rs
  55. Sampling rate               : 48.0 kHz
  56. Frame rate                  : 31.250 FPS (1536 SPF)
  57. Bit depth                   : 16 bits
  58. Compression mode            : Lossy
  59. Stream size                 : 326 MiB (23%)
  60. Language                    : English
  61. Service kind                : Complete Main
  62. Default                     : Yes
  63. Forced                      : No
  64.  
  65. Text #1
  66. ID                          : 3
  67. Format                      : UTF-8
  68. Codec ID                    : S_TEXT/UTF8
  69. Codec ID/Info               : UTF-8 Plain Text
  70. Duration                    : 1 h 35 min
  71. Bit rate                    : 55 b/s
  72. Count of elements           : 1323
  73. Stream size                 : 38.9 KiB (0%)
  74. Language                    : English
  75. Default                     : No
  76. Forced                      : No
  77.  
  78. Text #2
  79. ID                          : 4
  80. Format                      : UTF-8
  81. Codec ID                    : S_TEXT/UTF8
  82. Codec ID/Info               : UTF-8 Plain Text
  83. Duration                    : 1 h 34 min
  84. Bit rate                    : 43 b/s
  85. Count of elements           : 1128
  86. Stream size                 : 30.0 KiB (0%)
  87. Language                    : Spanish
  88. Default                     : Yes
  89. Forced                      : Yes
  90.  
  91. Menu
  92. 00:00:00.000                : :Chapter 01
  93. 00:12:59.236                : :Chapter 02
  94. 00:27:00.410                : :Chapter 03
  95. 00:40:29.051                : :Chapter 04
  96. 00:55:03.425                : :Chapter 05
  97. 01:09:01.762                : :Chapter 06
  98. 01:21:48.737                : :Chapter 07
  99. 01:36:39.752                : :Chapter 08
RAW Paste Data
We use cookies for various purposes including analytics. By continuing to use Pastebin, you agree to our use of cookies as described in the Cookies Policy. OK, I Understand
 
Top