Guest User

Untitled

a guest
Jul 11th, 2019
141
Never
Not a member of Pastebin yet? Sign Up, it unlocks many cool features!
  1. E/FFMPEG -: ffmpeg version n4.0-39-gda39990 Copyright (c) 2000-2018 the FFmpeg developers
  2. E/FFMPEG -: built with gcc 4.9.x (GCC) 20150123 (prerelease)
  3. E/FFMPEG -: configuration: --target-os=linux --cross-prefix=/root/bravobit/ffmpeg-android/toolchain-android/bin/arm-linux-androideabi- --arch=arm --cpu=cortex-a8 --enable-runtime-cpudetect --sysroot=/root/bravobit/ffmpeg-android/toolchain-android/sysroot --enable-pic --enable-libx264 --enable-ffprobe --enable-libopus --enable-libvorbis --enable-libfdk-aac --enable-libfreetype --enable-libfribidi --enable-libmp3lame --enable-fontconfig --enable-libvpx --enable-libass --enable-yasm --enable-pthreads --disable-debug --enable-version3 --enable-hardcoded-tables --disable-ffplay --disable-linux-perf --disable-doc --disable-shared --enable-static --enable-runtime-cpudetect --enable-nonfree --enable-network --enable-avresample --enable-avformat --enable-avcodec --enable-indev=lavfi --enable-hwaccels --enable-ffmpeg --enable-zlib --enable-gpl --enable-small --enable-nonfree --pkg-config=pkg-config --pkg-config-flags=--static --prefix=/root/bravobit/ffmpeg-android/build/armeabi-v7a --extra-cflags='-I/root/bravobit/ffmpeg-android/toolchain-android/include -U_FORTIFY_SOURCE -D_FORTIFY_SOURCE=2 -fno-strict-overflow -fstack-protector-all' --extra-ldflags='-L/root/bravobit/ffmpeg-android/toolchain-android/lib -Wl,-z,relro -Wl,-z,now -pie' --extra-cxxflags=
  4. E/FFMPEG -: libavutil 56. 14.100 / 56. 14.100
  5. E/FFMPEG -: libavcodec 58. 18.100 / 58. 18.100
  6. E/FFMPEG -: libavformat 58. 12.100 / 58. 12.100
  7. E/FFMPEG -: libavdevice 58. 3.100 / 58. 3.100
  8. E/FFMPEG -: libavfilter 7. 16.100 / 7. 16.100
  9. E/FFMPEG -: libavresample 4. 0. 0 / 4. 0. 0
  10. E/FFMPEG -: libswscale 5. 1.100 / 5. 1.100
  11. E/FFMPEG -: libswresample 3. 1.100 / 3. 1.100
  12. E/FFMPEG -: libpostproc 55. 1.100 / 55. 1.100
  13. E/FFMPEG -: Input #0, mov,mp4,m4a,3gp,3g2,mj2, from '/storage/emulated/0/Android/data/packagename/files/CameraTemp/2019_07_11_12_37_11.mp4':
  14. E/FFMPEG -: Metadata:
  15. E/FFMPEG -: major_brand : mp42
  16. E/FFMPEG -: minor_version : 0
  17. E/FFMPEG -: compatible_brands: isommp42
  18. E/FFMPEG -: creation_time : 2019-07-11T10:37:18.000000Z
  19. E/FFMPEG -: com.android.version: 8.1.0
  20. E/FFMPEG -: Duration: 00:00:02.25, start: 0.000000, bitrate: 17528 kb/s
  21. E/FFMPEG -: Stream #0:0(eng): Video: h264 (avc1 / 0x31637661), yuv420p(tv, bt709), 1920x1080, 17385 kb/s, SAR 1:1 DAR 16:9, 30.04 fps, 30 tbr, 90k tbn, 180k tbc (default)
  22. E/FFMPEG -: Metadata:
  23. E/FFMPEG -: rotate : 90
  24. E/FFMPEG -: creation_time : 2019-07-11T10:37:18.000000Z
  25. E/FFMPEG -: handler_name : VideoHandle
  26. E/FFMPEG -: Side data:
  27. E/FFMPEG -: displaymatrix: rotation of -90.00 degrees
  28. E/FFMPEG -: Stream #0:1(eng): Audio: aac (mp4a / 0x6134706D), 48000 Hz, stereo, fltp, 255 kb/s (default)
  29. E/FFMPEG -: Metadata:
  30. E/FFMPEG -: creation_time : 2019-07-11T10:37:18.000000Z
  31. E/FFMPEG -: handler_name : SoundHandle
  32. E/FFMPEG -: Input #1, png_pipe, from '/storage/emulated/0/Android/data/packagename/files/MyVideos/tempShapes.png':
  33. E/FFMPEG -: Duration: N/A, bitrate: N/A
  34. E/FFMPEG -: Stream #1:0: Video: png, rgba(pc), 1080x1920, 25 tbr, 25 tbn, 25 tbc
  35. E/FFMPEG -: Stream mapping:
  36. E/FFMPEG -: Stream #0:0 (h264) -> scale (graph 0)
  37. E/FFMPEG -: Stream #1:0 (png) -> scale2ref:default (graph 0)
  38. E/FFMPEG -: scale (graph 0) -> Stream #0:0 (libx264)
  39. E/FFMPEG -: Stream #0:1 -> #0:1 (aac (native) -> aac (native))
  40. E/FFMPEG -: Press [q] to stop, [?] for help
  41. E/FFMPEG -: frame= 0 fps=0.0 q=0.0 size= 0kB time=-577014:32:22.77 bitrate= -0.0kbits/s speed=N/A
  42. E/FFMPEG -: [libx264 @ 0xf289c680] using SAR=1/1
  43. E/FFMPEG -: [libx264 @ 0xf289c680] using cpu capabilities: ARMv6 NEON
  44. E/FFMPEG -: [libx264 @ 0xf289c680] profile Constrained Baseline, level 4.0
  45. E/FFMPEG -: [libx264 @ 0xf289c680] 264 - core 152 r2851M ba24899 - H.264/MPEG-4 AVC codec - Copyleft 2003-2017 - http://www.videolan.org/x264.html - options: cabac=0 ref=1 deblock=0:0:0 analyse=0:0 me=dia subme=0 psy=1 psy_rd=1.00:0.00 mixed_ref=0 me_range=16 chroma_me=1 trellis=0 8x8dct=0 cqm=0 deadzone=21,11 fast_pskip=1 chroma_qp_offset=0 threads=12 lookahead_threads=2 sliced_threads=0 nr=0 decimate=1 interlaced=0 bluray_compat=0 constrained_intra=0 bframes=0 weightp=0 keyint=2 keyint_min=1 scenecut=0 intra_refresh=0 rc=crf mbtree=0 crf=23.0 qcomp=0.60 qpmin=0 qpmax=69 qpstep=4 ip_ratio=1.40 aq=0
  46. E/FFMPEG -: Output #0, mp4, to '/storage/emulated/0/Android/data/packagename/files/MyVideos/2019_07_11_12_37_30.mp4':
  47. E/FFMPEG -: Metadata:
  48. E/FFMPEG -: major_brand : mp42
  49. E/FFMPEG -: minor_version : 0
  50. E/FFMPEG -: compatible_brands: isommp42
  51. E/FFMPEG -: com.android.version: 8.1.0
  52. E/FFMPEG -: encoder : Lavf58.12.100
  53. E/FFMPEG -: Stream #0:0: Video: h264 (libx264) (avc1 / 0x31637661), yuv420p, 1920x1080 [SAR 1:1 DAR 16:9], q=-1--1, 30 fps, 15360 tbn, 30 tbc (default)
  54. E/FFMPEG -: Metadata:
  55. E/FFMPEG -: encoder : Lavc58.18.100 libx264
  56. E/FFMPEG -: Side data:
  57. E/FFMPEG -: cpb: bitrate max/min/avg: 0/0/0 buffer size: 0 vbv_delay: -1
  58. E/FFMPEG -: Stream #0:1(eng): Audio: aac (mp4a / 0x6134706D), 48000 Hz, stereo, fltp, 128 kb/s (default)
  59. E/FFMPEG -: Metadata:
  60. E/FFMPEG -: creation_time : 2019-07-11T10:37:18.000000Z
  61. E/FFMPEG -: handler_name : SoundHandle
  62. E/FFMPEG -: encoder : Lavc58.18.100 aac
  63. E/FFMPEG -: frame= 0 fps=0.0 q=0.0 size= 0kB time=00:00:00.98 bitrate= 0.4kbits/s speed=0.705x
  64. E/FFMPEG -: frame= 8 fps=4.1 q=0.0 size= 0kB time=00:00:00.98 bitrate= 0.4kbits/s dup=1 drop=0 speed=0.504x
  65. E/FFMPEG -: frame= 14 fps=5.6 q=25.0 size= 0kB time=00:00:00.98 bitrate= 0.4kbits/s dup=1 drop=0 speed=0.391x
  66. E/FFMPEG -: frame= 20 fps=6.6 q=25.0 size= 512kB time=00:00:00.98 bitrate=4274.5kbits/s dup=1 drop=0 speed=0.325x
  67. E/FFMPEG -: frame= 26 fps=7.4 q=25.0 size= 768kB time=00:00:00.98 bitrate=6411.5kbits/s dup=1 drop=0 speed=0.278x
  68. E/FFMPEG -: frame= 32 fps=7.9 q=25.0 size= 1280kB time=00:00:00.98 bitrate=10685.6kbits/s dup=1 drop=0 speed=0.243x
  69. E/FFMPEG -: frame= 37 fps=8.1 q=22.0 size= 1536kB time=00:00:01.17 bitrate=10724.4kbits/s dup=1 drop=0 speed=0.258x
  70. E/FFMPEG -: frame= 37 fps=7.7 q=-1.0 Lsize= 2707kB time=00:00:01.23 bitrate=17925.2kbits/s dup=1 drop=0 speed=0.259x
  71. E/FFMPEG -: video:2686kB audio:19kB subtitle:0kB other streams:0kB global headers:0kB muxing overhead: 0.090797%
  72. E/FFMPEG -: [libx264 @ 0xf289c680] frame I:19 Avg QP:21.05 size:121153
  73. E/FFMPEG -: [libx264 @ 0xf289c680] frame P:18 Avg QP:24.89 size: 24879
  74. E/FFMPEG -: [libx264 @ 0xf289c680] mb I I16..4: 100.0% 0.0% 0.0%
  75. E/FFMPEG -: [libx264 @ 0xf289c680] mb P I16..4: 16.7% 0.0% 0.0% P16..4: 29.9% 0.0% 0.0% 0.0% 0.0% skip:53.4%
  76. E/FFMPEG -: [libx264 @ 0xf289c680] coded y,uvDC,uvAC intra: 77.6% 36.6% 4.0% inter: 16.3% 2.1% 0.0%
  77. E/FFMPEG -: [libx264 @ 0xf289c680] i16 v,h,dc,p: 39% 20% 27% 14%
  78. E/FFMPEG -: [libx264 @ 0xf289c680] i8c dc,h,v,p: 55% 16% 24% 6%
  79. E/FFMPEG -: [libx264 @ 0xf289c680] kb/s:17836.00
  80. E/FFMPEG -: [aac @ 0xf289d100] Qavg: 190.422
RAW Paste Data