Henry_Kr

TC2011-S01

Apr 13th, 2020
124
Never
Not a member of Pastebin yet? Sign Up, it unlocks many cool features!
  1. Video
  2. ID : 1
  3. Format : AVC
  4. Format/Info : Advanced Video Codec
  5. Format profile : High@L4.1
  6. Format settings : CABAC / 4 Ref Frames
  7. Format settings, CABAC : Yes
  8. Format settings, Reference : 4 frames
  9. Muxing mode : Header stripping
  10. Codec ID : V_MPEG4/ISO/AVC
  11. Duration : 22 min 35 s
  12. Bit rate : 7 712 kb/s
  13. Width : 1 920 pixels
  14. Height : 1 080 pixels
  15. Display aspect ratio : 16:9
  16. Frame rate mode : Constant
  17. Frame rate : 23.976 (24000/1001) FPS
  18. Color space : YUV
  19. Chroma subsampling : 4:2:0
  20. Bit depth : 8 bits
  21. Scan type : Progressive
  22. Bits/(Pixel*Frame) : 0.155
  23. Stream size : 1.19 GiB (80%)
  24. Title : Thundercats.2011.S01E01.Presságios.Parte.I.1080p.BluRay.[CartoonNOW]
  25. Language : English
  26. Default : Yes
  27. Forced : No
  28.  
  29. Audio #1
  30. ID : 2
  31. Format : AC-3
  32. Format/Info : Audio Coding 3
  33. Commercial name : Dolby Digital
  34. Muxing mode : Header stripping
  35. Codec ID : A_AC3
  36. Duration : 22 min 35 s
  37. Bit rate mode : Constant
  38. Bit rate : 192 kb/s
  39. Channel(s) : 2 channels
  40. Channel layout : L R
  41. Sampling rate : 48.0 kHz
  42. Frame rate : 31.250 FPS (1536 SPF)
  43. Compression mode : Lossy
  44. Stream size : 31.0 MiB (2%)
  45. Title : AC3 2.0
  46. Language : Portuguese
  47. Service kind : Complete Main
  48. Default : Yes
  49. Forced : No
  50.  
  51. Audio #2
  52. ID : 3
  53. Format : DTS
  54. Format/Info : Digital Theater Systems
  55. Muxing mode : Header stripping
  56. Codec ID : A_DTS
  57. Duration : 22 min 35 s
  58. Bit rate mode : Constant
  59. Bit rate : 1 509 kb/s
  60. Channel(s) : 2 channels
  61. Channel layout : L R
  62. Sampling rate : 48.0 kHz
  63. Frame rate : 93.750 FPS (512 SPF)
  64. Bit depth : 24 bits
  65. Compression mode : Lossy
  66. Stream size : 244 MiB (16%)
  67. Title : DTS 2.0
  68. Language : English
  69. Default : No
  70. Forced : No
  71.  
  72. Text
  73. ID : 4
  74. Format : UTF-8
  75. Codec ID : S_TEXT/UTF8
  76. Codec ID/Info : UTF-8 Plain Text
  77. Title : Completa
  78. Language : Portuguese
  79. Default : No
  80. Forced : No
  81.  
  82. Menu
  83. 00:00:47.275 : en: Parte 1
  84. 00:08:35.513 : en: Parte 2
  85. 00:16:08.388 : en: Chapter 3
  86. 00:22:03.600 : en: Chapter 4
RAW Paste Data