iMN0

Operation.Crossbow.1965.1080p.BluRay.x264-PSYCHD.mkv

Jul 15th, 2021
54
Never
Not a member of Pastebin yet? Sign Up, it unlocks many cool features!
  1. General
  2. Complete name : Operation.Crossbow.1965.1080p.BluRay.x264-PSYCHD.mkv
  3. Format : Matroska
  4. Format version : Version 4
  5. File size : 12.0 GiB
  6. Duration : 1 h 56 min
  7. Overall bit rate : 14.8 Mb/s
  8. Encoded date : UTC 2010-02-22 21:41:29
  9. Writing application : no_variable_data
  10. Writing library : no_variable_data
  11.  
  12. Video
  13. ID : 1
  14. Format : AVC
  15. Format/Info : Advanced Video Codec
  16. Format profile : High@L4.1
  17. Format settings : CABAC / 5 Ref Frames
  18. Format settings, CABAC : Yes
  19. Format settings, Reference frames : 5 frames
  20. Codec ID : V_MPEG4/ISO/AVC
  21. Duration : 1 h 56 min
  22. Bit rate : 13.3 Mb/s
  23. Width : 1 920 pixels
  24. Height : 824 pixels
  25. Display aspect ratio : 2.35:1
  26. Frame rate mode : Constant
  27. Frame rate : 23.976 (24000/1001) FPS
  28. Color space : YUV
  29. Chroma subsampling : 4:2:0
  30. Bit depth : 8 bits
  31. Scan type : Progressive
  32. Bits/(Pixel*Frame) : 0.350
  33. Stream size : 10.6 GiB (88%)
  34. Writing library : x264 core 159 r2991 1771b55
  35. Encoding settings : cabac=1 / ref=5 / deblock=1:-3:-3 / analyse=0x3:0x113 / me=umh / subme=8 / psy=1 / psy_rd=1.10:0.00 / mixed_ref=1 / me_range=32 / chroma_me=1 / trellis=2 / 8x8dct=1 / cqm=0 / deadzone=21,11 / fast_pskip=1 / chroma_qp_offset=-2 / threads=26 / lookahead_threads=4 / sliced_threads=0 / nr=0 / decimate=1 / interlaced=0 / bluray_compat=0 / constrained_intra=0 / bframes=3 / b_pyramid=2 / b_adapt=2 / b_bias=0 / direct=3 / weightb=1 / open_gop=0 / weightp=2 / keyint=240 / keyint_min=24 / scenecut=40 / intra_refresh=0 / rc_lookahead=50 / rc=2pass / mbtree=1 / bitrate=13290 / ratetol=1.0 / qcomp=0.60 / qpmin=0 / qpmax=69 / qpstep=4 / cplxblur=20.0 / qblur=0.5 / ip_ratio=1.40 / aq=3:0.70
  36. Default : Yes
  37. Forced : No
  38. Statistics Tags Issue : no_variable_data 1970-01-01 00:00:00 / no_variable_data 2010-02-22 21:41:29
  39. FromStats_BitRate : 13290524
  40. FromStats_Duration : 01:56:20.015000000
  41. FromStats_FrameCount : 167353
  42. FromStats_StreamSize : 11596007559
  43.  
  44. Audio
  45. ID : 2
  46. Format : DTS
  47. Format/Info : Digital Theater Systems
  48. Codec ID : A_DTS
  49. Duration : 1 h 56 min
  50. Bit rate mode : Constant
  51. Bit rate : 1 509 kb/s
  52. Channel(s) : 6 channels
  53. Channel layout : C L R Ls Rs LFE
  54. Sampling rate : 48.0 kHz
  55. Frame rate : 93.750 FPS (512 SPF)
  56. Bit depth : 24 bits
  57. Compression mode : Lossy
  58. Stream size : 1.23 GiB (10%)
  59. Language : English
  60. Default : Yes
  61. Forced : No
  62. Statistics Tags Issue : no_variable_data 1970-01-01 00:00:00 / no_variable_data 2010-02-22 21:41:29
  63. FromStats_BitRate : 1508999
  64. FromStats_Duration : 01:56:20.011000000
  65. FromStats_FrameCount : 654376
  66. FromStats_StreamSize : 1316604512
  67.  
  68. Text #1
  69. ID : 3
  70. Format : UTF-8
  71. Codec ID : S_TEXT/UTF8
  72. Codec ID/Info : UTF-8 Plain Text
  73. Language : English
  74. Default : No
  75. Forced : No
  76. Statistics Tags Issue : no_variable_data 1970-01-01 00:00:00 / no_variable_data 2010-02-22 21:41:29
  77. FromStats_BitRate : 43
  78. FromStats_Duration : 01:55:13.490000000
  79. FromStats_FrameCount : 1251
  80. FromStats_StreamSize : 37996
  81.  
  82. Text #2
  83. ID : 4
  84. Format : UTF-8
  85. Codec ID : S_TEXT/UTF8
  86. Codec ID/Info : UTF-8 Plain Text
  87. Title : SDH
  88. Language : English
  89. Default : No
  90. Forced : No
  91. Statistics Tags Issue : no_variable_data 1970-01-01 00:00:00 / no_variable_data 2010-02-22 21:41:29
  92. FromStats_BitRate : 47
  93. FromStats_Duration : 01:55:45.146000000
  94. FromStats_FrameCount : 1409
  95. FromStats_StreamSize : 41453
  96.  
  97. Menu
  98. 00:00:00.000 : en:Chapter 01
  99. 00:02:09.629 : en:Chapter 02
  100. 00:04:30.604 : en:Chapter 03
  101. 00:09:13.928 : en:Chapter 04
  102. 00:12:46.265 : en:Chapter 05
  103. 00:18:49.378 : en:Chapter 06
  104. 00:22:58.419 : en:Chapter 07
  105. 00:26:04.688 : en:Chapter 08
  106. 00:32:01.461 : en:Chapter 09
  107. 00:37:41.134 : en:Chapter 10
  108. 00:41:55.096 : en:Chapter 11
  109. 00:46:28.327 : en:Chapter 12
  110. 00:50:07.338 : en:Chapter 13
  111. 00:55:31.453 : en:Chapter 14
  112. 01:02:08.058 : en:Chapter 15
  113. 01:05:48.444 : en:Chapter 16
  114. 01:11:00.548 : en:Chapter 17
  115. 01:16:45.226 : en:Chapter 18
  116. 01:19:57.501 : en:Chapter 19
  117. 01:25:35.589 : en:Chapter 20
  118. 01:32:28.001 : en:Chapter 21
  119. 01:37:49.113 : en:Chapter 22
  120. 01:41:28.666 : en:Chapter 23
  121. 01:45:22.775 : en:Chapter 24
  122. 01:48:21.787 : en:Chapter 25
  123. 01:52:27.741 : en:Chapter 26
  124. 01:54:55.639 : en:Chapter 27
  125. 01:55:58.368 : en:Chapter 28
RAW Paste Data