HYBRID_BEING

[H4L] Hundred - 03 [720p][C9C61A45].mkv

Jul 11th, 2016
144
Never
Not a member of Pastebin yet? Sign Up, it unlocks many cool features!
  1. General
  2. Unique ID : 245195581297265085715432702097519230683 (0xB876F3837E5F6E039094AEF1609F3EDB)
  3. Complete name : [H4L] Hundred - 03 [720p][C9C61A45].mkv
  4. Format : Matroska
  5. Format version : Version 4 / Version 2
  6. File size : 328 MiB
  7. Duration : 24mn 5s
  8. Overall bit rate : 1 903 Kbps
  9. Movie name : [Firime] Hundred - "Variant Awakening" (Episode 03)
  10. Encoded date : UTC 2016-05-22 16:16:48
  11. Writing application : mkvmerge v9.1.0 ('Little Earthquakes') 64bit
  12. Writing library : libebml v1.3.3 + libmatroska v1.4.4
  13. Attachments : chinrg_.ttf / ClubTypeMercurius-Medium.ttf / kna_.ttf / vesta-bold.otf
  14.  
  15. Video
  16. ID : 1
  17. Format : AVC
  18. Format/Info : Advanced Video Codec
  19. Format profile : High@L4
  20. Format settings, CABAC : Yes
  21. Format settings, ReFrames : 6 frames
  22. Codec ID : V_MPEG4/ISO/AVC
  23. Duration : 24mn 5s
  24. Bit rate : 1 776 Kbps
  25. Width : 1 280 pixels
  26. Height : 720 pixels
  27. Display aspect ratio : 16:9
  28. Frame rate mode : Variable
  29. Frame rate : 23.976 (23976/1000) fps
  30. Color space : YUV
  31. Chroma subsampling : 4:2:0
  32. Bit depth : 8 bits
  33. Scan type : Progressive
  34. Bits/(Pixel*Frame) : 0.080
  35. Stream size : 305 MiB (93%)
  36. Title : Default
  37. Writing library : x264 core 120 r2120 0c7dab9
  38. Encoding settings : cabac=1 / ref=6 / deblock=1:1:1 / analyse=0x3:0x113 / me=umh / subme=8 / psy=1 / psy_rd=0.40:0.00 / mixed_ref=1 / me_range=16 / chroma_me=1 / trellis=1 / 8x8dct=1 / cqm=0 / deadzone=21,11 / fast_pskip=1 / chroma_qp_offset=-2 / threads=4 / sliced_threads=0 / nr=0 / decimate=1 / interlaced=0 / bluray_compat=0 / constrained_intra=0 / bframes=3 / b_pyramid=2 / b_adapt=2 / b_bias=0 / direct=3 / weightb=1 / open_gop=0 / weightp=2 / keyint=250 / keyint_min=23 / scenecut=40 / intra_refresh=0 / rc_lookahead=50 / rc=2pass / mbtree=1 / bitrate=1776 / ratetol=1.0 / qcomp=0.60 / qpmin=0 / qpmax=69 / qpstep=4 / cplxblur=20.0 / qblur=0.5 / vbv_maxrate=3552 / vbv_bufsize=8880 / nal_hrd=none / ip_ratio=1.40 / aq=1:0.60
  39. Default : Yes
  40. Forced : No
  41.  
  42. Audio
  43. ID : 2
  44. Format : AAC
  45. Format/Info : Advanced Audio Codec
  46. Format profile : LC
  47. Codec ID : A_AAC
  48. Duration : 24mn 5s
  49. Bit rate : 128 Kbps
  50. Channel(s) : 2 channels
  51. Channel positions : Front: L R
  52. Sampling rate : 44.1 KHz
  53. Frame rate : 43.066 fps (1024 spf)
  54. Compression mode : Lossy
  55. Stream size : 22.1 MiB (7%)
  56. Title : Default
  57. Language : Japanese
  58. Default : Yes
  59. Forced : No
  60.  
  61. Text #1
  62. ID : 3
  63. Format : ASS
  64. Codec ID : S_TEXT/ASS
  65. Codec ID/Info : Advanced Sub Station Alpha
  66. Duration : 23mn 53s
  67. Bit rate : 146 bps
  68. Count of elements : 397
  69. Compression mode : Lossless
  70. Stream size : 25.6 KiB (0%)
  71. Title : English
  72. Language : English
  73. Default : Yes
  74. Forced : No
  75.  
  76. Text #2
  77. ID : 4
  78. Format : ASS
  79. Codec ID : S_TEXT/ASS
  80. Codec ID/Info : Advanced Sub Station Alpha
  81. Duration : 23mn 53s
  82. Bit rate : 142 bps
  83. Count of elements : 397
  84. Compression mode : Lossless
  85. Stream size : 24.8 KiB (0%)
  86. Title : Tagalog
  87. Language : Tagalog
  88. Default : No
  89. Forced : No
  90.  
  91. Menu
  92. 00:00:00.000 : en:Vanity Logo
  93. 00:00:10.900 : en:Prologue
  94. 00:03:29.850 : en:Opening Theme
  95. 00:04:59.860 : en:Scene 1
  96. 00:10:13.840 : en:Scene 2
  97. 00:22:04.800 : en:Ending Theme
  98. 00:23:31.090 : en:Post-Credits Scene
  99. 00:23:55.790 : en:Preview
RAW Paste Data