mft39anton

Untitled

Oct 17th, 2013
43
Never
Not a member of Pastebin yet? Sign Up, it unlocks many cool features!
  1. Disc Title: THEBEATLES
  2. Disc Size: 23 365 096 697 bytes
  3. Protection: AACS
  4. BD-Java: Yes
  5. Extras: 50Hz Content
  6. BDInfo: 0.5.8
  7.  
  8. Notes:
  9.  
  10. BDINFO HOME:
  11. Cinema Squid
  12. http://www.cinemasquid.com/blu-ray/tools/bdinfo
  13.  
  14. INCLUDES FORUMS REPORT FOR:
  15. AVS Forum Blu-ray Audio and Video Specifications Thread
  16. http://www.avsforum.com/avs-vb/showthread.php?t=1155731
  17.  
  18.  
  19. ********************
  20. PLAYLIST: 00001.MPLS
  21. ********************
  22.  
  23. <--- BEGIN FORUMS PASTE --->
  24. [code]
  25. Total Video
  26. Title Codec Length Movie Size Disc Size Bitrate Bitrate Main Audio Track Secondary Audio Track
  27. ----- ------ ------- -------------- -------------- ------- ------- ------------------ ---------------------
  28. 00001.MPLS MPEG-2 1:34:47 13 756 182 528 23 365 096 697 19,35 17,99 DD AC3 2.0 192Kbps
  29. [/code]
  30.  
  31. [code]
  32.  
  33. DISC INFO:
  34.  
  35. Disc Title: THEBEATLES
  36. Disc Size: 23 365 096 697 bytes
  37. Protection: AACS
  38. BD-Java: Yes
  39. Extras: 50Hz Content
  40. BDInfo: 0.5.8
  41.  
  42. PLAYLIST REPORT:
  43.  
  44. Name: 00001.MPLS
  45. Length: 1:34:47.880 (h:m:s.ms)
  46. Size: 13 756 182 528 bytes
  47. Total Bitrate: 19,35 Mbps
  48.  
  49. VIDEO:
  50.  
  51. Codec Bitrate Description
  52. ----- ------- -----------
  53. MPEG-2 Video 17995 kbps 1080i / 25 fps / 16:9
  54.  
  55. AUDIO:
  56.  
  57. Codec Language Bitrate Description
  58. ----- -------- ------- -----------
  59. Dolby Digital Audio German 192 kbps 2.0 / 48 kHz / 192 kbps / DN -4dB
  60. Dolby Digital Audio English 192 kbps 2.0 / 48 kHz / 192 kbps / DN -4dB
  61.  
  62. FILES:
  63.  
  64. Name Time In Length Size Total Bitrate
  65. ---- ------- ------ ---- -------------
  66. 00001.M2TS 0:00:00.000 1:34:47.880 13 756 182 528 19 348
  67.  
  68. CHAPTERS:
  69.  
  70. Number Time In Length Avg Video Rate Max 1-Sec Rate Max 1-Sec Time Max 5-Sec Rate Max 5-Sec Time Max 10Sec Rate Max 10Sec Time Avg Frame Size Max Frame Size Max Frame Time
  71. ------ ------- ------ -------------- -------------- -------------- -------------- -------------- -------------- -------------- -------------- -------------- --------------
  72. 1 0:00:00.000 0:11:15.839 17 311 kbps 28 085 kbps 00:04:05.520 26 248 kbps 00:09:58.920 25 622 kbps 00:09:53.840 86 550 bytes 364 381 bytes 00:02:29.760
  73. 2 0:11:15.839 0:15:21.560 18 554 kbps 27 932 kbps 00:24:01.080 26 105 kbps 00:14:25.400 25 534 kbps 00:14:24.240 92 768 bytes 333 007 bytes 00:25:38.879
  74. 3 0:26:37.399 0:07:42.600 18 948 kbps 27 678 kbps 00:30:58.440 24 716 kbps 00:26:44.119 23 793 kbps 00:28:40.040 94 741 bytes 399 476 bytes 00:33:18.280
  75. 4 0:34:20.000 0:06:24.480 17 210 kbps 26 820 kbps 00:39:38.840 22 745 kbps 00:38:41.720 22 194 kbps 00:38:41.520 86 050 bytes 260 021 bytes 00:39:56.160
  76. 5 0:40:44.480 0:04:16.680 19 179 kbps 28 484 kbps 00:44:34.280 25 033 kbps 00:43:04.760 24 771 kbps 00:43:01.680 95 894 bytes 328 017 bytes 00:44:36.000
  77. 6 0:45:01.160 0:11:46.119 18 235 kbps 27 246 kbps 00:45:11.280 25 343 kbps 00:45:02.360 25 025 kbps 00:45:02.640 91 175 bytes 365 756 bytes 00:53:30.400
  78. 7 0:56:47.280 0:07:52.119 19 011 kbps 26 763 kbps 01:01:58.040 25 007 kbps 01:02:11.840 23 940 kbps 01:01:56.960 95 056 bytes 352 499 bytes 01:02:05.280
  79. 8 1:04:39.400 0:06:58.679 18 656 kbps 26 489 kbps 01:08:40.559 22 798 kbps 01:10:46.880 22 381 kbps 01:10:41.840 93 282 bytes 344 176 bytes 01:06:52.320
  80. 9 1:11:38.080 0:05:27.359 16 318 kbps 25 268 kbps 01:13:44.599 23 037 kbps 01:13:44.120 22 408 kbps 01:13:42.320 81 590 bytes 297 240 bytes 01:13:50.400
  81. 10 1:17:05.439 0:08:16.920 18 656 kbps 26 950 kbps 01:21:11.160 24 464 kbps 01:20:39.240 23 379 kbps 01:20:34.439 93 282 bytes 363 314 bytes 01:24:23.439
  82. 11 1:25:22.360 0:07:48.680 17 905 kbps 27 225 kbps 01:27:06.200 24 119 kbps 01:30:59.360 23 802 kbps 01:30:57.080 89 523 bytes 340 392 bytes 01:26:37.360
  83. 12 1:33:11.040 0:01:36.840 6 023 kbps 14 345 kbps 01:33:25.880 10 505 kbps 01:33:23.400 9 862 kbps 01:34:26.840 30 128 bytes 163 144 bytes 01:34:30.719
  84.  
  85. STREAM DIAGNOSTICS:
  86.  
  87. File PID Type Codec Language Seconds Bitrate Bytes Packets
  88. ---- --- ---- ----- -------- -------------- -------------- ------------- -----
  89. 00001.M2TS 4113 (0x1011) 0x02 MPEG-2 5687,720 17 995 12 794 127 924 69 616 562
  90. 00001.M2TS 4352 (0x1100) 0x81 AC3 deu (German) 5687,720 192 136 508 928 888 734
  91. 00001.M2TS 4353 (0x1101) 0x81 AC3 eng (English) 5687,720 192 136 509 696 888 735
  92.  
  93. [/code]
  94. <---- END FORUMS PASTE ---->
  95.  
  96. QUICK SUMMARY:
  97.  
  98. Disc Title: THEBEATLES
  99. Disc Size: 23 365 096 697 bytes
  100. Protection: AACS
  101. BD-Java: Yes
  102. Playlist: 00001.MPLS
  103. Size: 13 756 182 528 bytes
  104. Length: 1:34:47.880
  105. Total Bitrate: 19,35 Mbps
  106. Video: MPEG-2 Video / 17995 kbps / 1080i / 25 fps / 16:9
  107. Audio: German / Dolby Digital Audio / 2.0 / 48 kHz / 192 kbps / DN -4dB
  108. Audio: English / Dolby Digital Audio / 2.0 / 48 kHz / 192 kbps / DN -4dB
  109.  
  110.  
  111. ********************
  112. PLAYLIST: 01001.MPLS
  113. ********************
  114.  
  115. <--- BEGIN FORUMS PASTE --->
  116. [code]
  117. Total Video
  118. Title Codec Length Movie Size Disc Size Bitrate Bitrate Main Audio Track Secondary Audio Track
  119. ----- ------ ------- -------------- -------------- ------- ------- ------------------ ---------------------
  120. 01001.MPLS MPEG-2 1:34:47 13 756 182 528 23 365 096 697 19,35 17,99 DD AC3 2.0 192Kbps
  121. [/code]
  122.  
  123. [code]
  124.  
  125. DISC INFO:
  126.  
  127. Disc Title: THEBEATLES
  128. Disc Size: 23 365 096 697 bytes
  129. Protection: AACS
  130. BD-Java: Yes
  131. Extras: 50Hz Content
  132. BDInfo: 0.5.8
  133.  
  134. PLAYLIST REPORT:
  135.  
  136. Name: 01001.MPLS
  137. Length: 1:34:47.880 (h:m:s.ms)
  138. Size: 13 756 182 528 bytes
  139. Total Bitrate: 19,35 Mbps
  140.  
  141. VIDEO:
  142.  
  143. Codec Bitrate Description
  144. ----- ------- -----------
  145. MPEG-2 Video 17995 kbps 1080i / 25 fps / 16:9
  146.  
  147. AUDIO:
  148.  
  149. Codec Language Bitrate Description
  150. ----- -------- ------- -----------
  151. Dolby Digital Audio German 192 kbps 2.0 / 48 kHz / 192 kbps / DN -4dB
  152. Dolby Digital Audio English 192 kbps 2.0 / 48 kHz / 192 kbps / DN -4dB
  153.  
  154. FILES:
  155.  
  156. Name Time In Length Size Total Bitrate
  157. ---- ------- ------ ---- -------------
  158. 00001.M2TS 0:00:00.000 1:34:47.880 13 756 182 528 19 348
  159.  
  160. CHAPTERS:
  161.  
  162. Number Time In Length Avg Video Rate Max 1-Sec Rate Max 1-Sec Time Max 5-Sec Rate Max 5-Sec Time Max 10Sec Rate Max 10Sec Time Avg Frame Size Max Frame Size Max Frame Time
  163. ------ ------- ------ -------------- -------------- -------------- -------------- -------------- -------------- -------------- -------------- -------------- --------------
  164. 1 0:00:00.000 0:11:15.839 17 311 kbps 28 085 kbps 00:04:05.520 26 248 kbps 00:09:58.920 25 622 kbps 00:09:53.840 86 550 bytes 364 381 bytes 00:02:29.760
  165. 2 0:11:15.839 0:15:21.560 18 554 kbps 27 932 kbps 00:24:01.080 26 105 kbps 00:14:25.400 25 534 kbps 00:14:24.240 92 768 bytes 333 007 bytes 00:25:38.879
  166. 3 0:26:37.399 0:07:42.600 18 948 kbps 27 678 kbps 00:30:58.440 24 716 kbps 00:26:44.119 23 793 kbps 00:28:40.040 94 741 bytes 399 476 bytes 00:33:18.280
  167. 4 0:34:20.000 0:06:24.480 17 210 kbps 26 820 kbps 00:39:38.840 22 745 kbps 00:38:41.720 22 194 kbps 00:38:41.520 86 050 bytes 260 021 bytes 00:39:56.160
  168. 5 0:40:44.480 0:04:16.680 19 179 kbps 28 484 kbps 00:44:34.280 25 033 kbps 00:43:04.760 24 771 kbps 00:43:01.680 95 894 bytes 328 017 bytes 00:44:36.000
  169. 6 0:45:01.160 0:11:46.119 18 235 kbps 27 246 kbps 00:45:11.280 25 343 kbps 00:45:02.360 25 025 kbps 00:45:02.640 91 175 bytes 365 756 bytes 00:53:30.400
  170. 7 0:56:47.280 0:07:52.119 19 011 kbps 26 763 kbps 01:01:58.040 25 007 kbps 01:02:11.840 23 940 kbps 01:01:56.960 95 056 bytes 352 499 bytes 01:02:05.280
  171. 8 1:04:39.400 0:06:58.679 18 656 kbps 26 489 kbps 01:08:40.559 22 798 kbps 01:10:46.880 22 381 kbps 01:10:41.840 93 282 bytes 344 176 bytes 01:06:52.320
  172. 9 1:11:38.080 0:05:27.359 16 318 kbps 25 268 kbps 01:13:44.599 23 037 kbps 01:13:44.120 22 408 kbps 01:13:42.320 81 590 bytes 297 240 bytes 01:13:50.400
  173. 10 1:17:05.439 0:08:16.920 18 656 kbps 26 950 kbps 01:21:11.160 24 464 kbps 01:20:39.240 23 379 kbps 01:20:34.439 93 282 bytes 363 314 bytes 01:24:23.439
  174. 11 1:25:22.360 0:07:48.680 17 905 kbps 27 225 kbps 01:27:06.200 24 119 kbps 01:30:59.360 23 802 kbps 01:30:57.080 89 523 bytes 340 392 bytes 01:26:37.360
  175. 12 1:33:11.040 0:01:36.840 6 023 kbps 14 345 kbps 01:33:25.880 10 505 kbps 01:33:23.400 9 862 kbps 01:34:26.840 30 128 bytes 163 144 bytes 01:34:30.719
  176.  
  177. STREAM DIAGNOSTICS:
  178.  
  179. File PID Type Codec Language Seconds Bitrate Bytes Packets
  180. ---- --- ---- ----- -------- -------------- -------------- ------------- -----
  181. 00001.M2TS 4113 (0x1011) 0x02 MPEG-2 5687,720 17 995 12 794 127 924 69 616 562
  182. 00001.M2TS 4352 (0x1100) 0x81 AC3 deu (German) 5687,720 192 136 508 928 888 734
  183. 00001.M2TS 4353 (0x1101) 0x81 AC3 eng (English) 5687,720 192 136 509 696 888 735
  184.  
  185. [/code]
  186. <---- END FORUMS PASTE ---->
  187.  
  188. QUICK SUMMARY:
  189.  
  190. Disc Title: THEBEATLES
  191. Disc Size: 23 365 096 697 bytes
  192. Protection: AACS
  193. BD-Java: Yes
  194. Playlist: 01001.MPLS
  195. Size: 13 756 182 528 bytes
  196. Length: 1:34:47.880
  197. Total Bitrate: 19,35 Mbps
  198. Video: MPEG-2 Video / 17995 kbps / 1080i / 25 fps / 16:9
  199. Audio: German / Dolby Digital Audio / 2.0 / 48 kHz / 192 kbps / DN -4dB
  200. Audio: English / Dolby Digital Audio / 2.0 / 48 kHz / 192 kbps / DN -4dB
  201.  
  202.  
  203. ********************
  204. PLAYLIST: 00002.MPLS
  205. ********************
  206.  
  207. <--- BEGIN FORUMS PASTE --->
  208. [code]
  209. Total Video
  210. Title Codec Length Movie Size Disc Size Bitrate Bitrate Main Audio Track Secondary Audio Track
  211. ----- ------ ------- -------------- -------------- ------- ------- ------------------ ---------------------
  212. 00002.MPLS MPEG-2 0:41:18 5 926 182 912 23 365 096 697 19,13 17,99 DD AC3 2.0 192Kbps
  213. [/code]
  214.  
  215. [code]
  216.  
  217. DISC INFO:
  218.  
  219. Disc Title: THEBEATLES
  220. Disc Size: 23 365 096 697 bytes
  221. Protection: AACS
  222. BD-Java: Yes
  223. Extras: 50Hz Content
  224. BDInfo: 0.5.8
  225.  
  226. PLAYLIST REPORT:
  227.  
  228. Name: 00002.MPLS
  229. Length: 0:41:18.280 (h:m:s.ms)
  230. Size: 5 926 182 912 bytes
  231. Total Bitrate: 19,13 Mbps
  232.  
  233. VIDEO:
  234.  
  235. Codec Bitrate Description
  236. ----- ------- -----------
  237. MPEG-2 Video 17993 kbps 1080i / 25 fps / 16:9
  238.  
  239. AUDIO:
  240.  
  241. Codec Language Bitrate Description
  242. ----- -------- ------- -----------
  243. Dolby Digital Audio Undetermined 192 kbps 2.0 / 48 kHz / 192 kbps / DN -4dB
  244.  
  245. SUBTITLES:
  246.  
  247. Codec Language Bitrate Description
  248. ----- -------- ------- -----------
  249. Presentation Graphics Undetermined 20,603 kbps
  250.  
  251. FILES:
  252.  
  253. Name Time In Length Size Total Bitrate
  254. ---- ------- ------ ---- -------------
  255. 00002.M2TS 0:00:00.000 0:41:18.280 5 926 182 912 19 130
  256.  
  257. CHAPTERS:
  258.  
  259. Number Time In Length Avg Video Rate Max 1-Sec Rate Max 1-Sec Time Max 5-Sec Rate Max 5-Sec Time Max 10Sec Rate Max 10Sec Time Avg Frame Size Max Frame Size Max Frame Time
  260. ------ ------- ------ -------------- -------------- -------------- -------------- -------------- -------------- -------------- -------------- -------------- --------------
  261. 1 0:07:18.360 0:09:07.840 33 191 kbps 27 253 kbps 00:07:43.800 21 312 kbps 00:07:40.640 20 150 kbps 00:07:40.680 92 186 bytes 319 385 bytes 00:06:51.839
  262. 2 0:16:26.200 0:08:59.200 18 061 kbps 26 831 kbps 00:17:01.879 20 950 kbps 00:17:01.800 20 314 kbps 00:17:00.120 90 303 bytes 315 951 bytes 00:19:58.080
  263. 3 0:25:25.400 0:09:31.440 18 075 kbps 27 106 kbps 00:27:28.280 20 798 kbps 00:27:10.040 20 087 kbps 00:27:10.440 90 377 bytes 324 614 bytes 00:33:29.280
  264. 4 0:34:56.840 0:02:37.800 17 132 kbps 26 568 kbps 00:37:00.120 20 598 kbps 00:36:10.040 19 358 kbps 00:36:08.280 85 658 bytes 304 635 bytes 00:35:40.320
  265. 5 0:37:34.640 0:01:47.759 17 037 kbps 26 224 kbps 00:38:37.080 20 742 kbps 00:38:56.120 19 753 kbps 00:38:55.800 85 185 bytes 312 602 bytes 00:38:03.840
  266. 6 0:39:22.400 0:01:55.880 15 549 kbps 27 872 kbps 00:39:28.920 20 419 kbps 00:40:21.560 19 286 kbps 00:39:45.560 77 771 bytes 310 031 bytes 00:39:37.440
  267.  
  268. STREAM DIAGNOSTICS:
  269.  
  270. File PID Type Codec Language Seconds Bitrate Bytes Packets
  271. ---- --- ---- ----- -------- -------------- -------------- ------------- -----
  272. 00002.M2TS 4113 (0x1011) 0x02 MPEG-2 2478,160 17 994 5 573 989 564 30 329 583
  273. 00002.M2TS 4352 (0x1100) 0x81 AC3 und (Undetermined) 2478,160 192 59 479 296 387 235
  274. 00002.M2TS 4608 (0x1200) 0x90 PGS und (Undetermined) 2478,160 21 6 382 573 38 343
  275.  
  276. [/code]
  277. <---- END FORUMS PASTE ---->
  278.  
  279. QUICK SUMMARY:
  280.  
  281. Disc Title: THEBEATLES
  282. Disc Size: 23 365 096 697 bytes
  283. Protection: AACS
  284. BD-Java: Yes
  285. Playlist: 00002.MPLS
  286. Size: 5 926 182 912 bytes
  287. Length: 0:41:18.280
  288. Total Bitrate: 19,13 Mbps
  289. Video: MPEG-2 Video / 17993 kbps / 1080i / 25 fps / 16:9
  290. Audio: Undetermined / Dolby Digital Audio / 2.0 / 48 kHz / 192 kbps / DN -4dB
  291. Subtitle: Undetermined / 20,603 kbps
  292.  
  293.  
  294. ********************
  295. PLAYLIST: 01002.MPLS
  296. ********************
  297.  
  298. <--- BEGIN FORUMS PASTE --->
  299. [code]
  300. Total Video
  301. Title Codec Length Movie Size Disc Size Bitrate Bitrate Main Audio Track Secondary Audio Track
  302. ----- ------ ------- -------------- -------------- ------- ------- ------------------ ---------------------
  303. 01002.MPLS MPEG-2 0:41:18 5 926 182 912 23 365 096 697 19,13 17,99 DD AC3 2.0 192Kbps
  304. [/code]
  305.  
  306. [code]
  307.  
  308. DISC INFO:
  309.  
  310. Disc Title: THEBEATLES
  311. Disc Size: 23 365 096 697 bytes
  312. Protection: AACS
  313. BD-Java: Yes
  314. Extras: 50Hz Content
  315. BDInfo: 0.5.8
  316.  
  317. PLAYLIST REPORT:
  318.  
  319. Name: 01002.MPLS
  320. Length: 0:41:18.280 (h:m:s.ms)
  321. Size: 5 926 182 912 bytes
  322. Total Bitrate: 19,13 Mbps
  323.  
  324. VIDEO:
  325.  
  326. Codec Bitrate Description
  327. ----- ------- -----------
  328. MPEG-2 Video 17993 kbps 1080i / 25 fps / 16:9
  329.  
  330. AUDIO:
  331.  
  332. Codec Language Bitrate Description
  333. ----- -------- ------- -----------
  334. Dolby Digital Audio Undetermined 192 kbps 2.0 / 48 kHz / 192 kbps / DN -4dB
  335.  
  336. SUBTITLES:
  337.  
  338. Codec Language Bitrate Description
  339. ----- -------- ------- -----------
  340. Presentation Graphics Undetermined 20,603 kbps
  341.  
  342. FILES:
  343.  
  344. Name Time In Length Size Total Bitrate
  345. ---- ------- ------ ---- -------------
  346. 00002.M2TS 0:00:00.000 0:41:18.280 5 926 182 912 19 130
  347.  
  348. CHAPTERS:
  349.  
  350. Number Time In Length Avg Video Rate Max 1-Sec Rate Max 1-Sec Time Max 5-Sec Rate Max 5-Sec Time Max 10Sec Rate Max 10Sec Time Avg Frame Size Max Frame Size Max Frame Time
  351. ------ ------- ------ -------------- -------------- -------------- -------------- -------------- -------------- -------------- -------------- -------------- --------------
  352. 1 0:07:18.360 0:09:07.840 33 191 kbps 27 253 kbps 00:07:43.800 21 312 kbps 00:07:40.640 20 150 kbps 00:07:40.680 92 186 bytes 319 385 bytes 00:06:51.839
  353. 2 0:16:26.200 0:08:59.200 18 061 kbps 26 831 kbps 00:17:01.879 20 950 kbps 00:17:01.800 20 314 kbps 00:17:00.120 90 303 bytes 315 951 bytes 00:19:58.080
  354. 3 0:25:25.400 0:09:31.440 18 075 kbps 27 106 kbps 00:27:28.280 20 798 kbps 00:27:10.040 20 087 kbps 00:27:10.440 90 377 bytes 324 614 bytes 00:33:29.280
  355. 4 0:34:56.840 0:02:37.800 17 132 kbps 26 568 kbps 00:37:00.120 20 598 kbps 00:36:10.040 19 358 kbps 00:36:08.280 85 658 bytes 304 635 bytes 00:35:40.320
  356. 5 0:37:34.640 0:01:47.759 17 037 kbps 26 224 kbps 00:38:37.080 20 742 kbps 00:38:56.120 19 753 kbps 00:38:55.800 85 185 bytes 312 602 bytes 00:38:03.840
  357. 6 0:39:22.400 0:01:55.880 15 549 kbps 27 872 kbps 00:39:28.920 20 419 kbps 00:40:21.560 19 286 kbps 00:39:45.560 77 771 bytes 310 031 bytes 00:39:37.440
  358.  
  359. STREAM DIAGNOSTICS:
  360.  
  361. File PID Type Codec Language Seconds Bitrate Bytes Packets
  362. ---- --- ---- ----- -------- -------------- -------------- ------------- -----
  363. 00002.M2TS 4113 (0x1011) 0x02 MPEG-2 2478,160 17 994 5 573 989 564 30 329 583
  364. 00002.M2TS 4352 (0x1100) 0x81 AC3 und (Undetermined) 2478,160 192 59 479 296 387 235
  365. 00002.M2TS 4608 (0x1200) 0x90 PGS und (Undetermined) 2478,160 21 6 382 573 38 343
  366.  
  367. [/code]
  368. <---- END FORUMS PASTE ---->
  369.  
  370. QUICK SUMMARY:
  371.  
  372. Disc Title: THEBEATLES
  373. Disc Size: 23 365 096 697 bytes
  374. Protection: AACS
  375. BD-Java: Yes
  376. Playlist: 01002.MPLS
  377. Size: 5 926 182 912 bytes
  378. Length: 0:41:18.280
  379. Total Bitrate: 19,13 Mbps
  380. Video: MPEG-2 Video / 17993 kbps / 1080i / 25 fps / 16:9
  381. Audio: Undetermined / Dolby Digital Audio / 2.0 / 48 kHz / 192 kbps / DN -4dB
  382. Subtitle: Undetermined / 20,603 kbps
RAW Paste Data