SHARE
TWEET

Friday.the.13th.1980.Uncut.1080p.BluRay.REMUX.AVC.TrueHD.5.1-EPSiLON

a guest Jun 11th, 2019 41 Never
Not a member of Pastebin yet? Sign Up, it unlocks many cool features!
  1. General
  2. Complete name                            : Friday.the.13th.1980.Uncut.1080p.BluRay.REMUX.AVC.TrueHD.5.1-EPSiLON.mkv
  3. Format                                   : Matroska
  4. Format version                           : Version 4
  5. File size                                : 23.9 GiB
  6. Duration                                 : 1 h 35 min
  7. Overall bit rate mode                    : Variable
  8. Overall bit rate                         : 35.8 Mb/s
  9. Encoded date                             : UTC 2017-10-19 15:57:52
  10. Writing application                      : mkvmerge v9.6.0 ('Slave To Your Mind') 64bit
  11. Writing library                          : libebml v1.3.4 + libmatroska v1.4.5
  12.  
  13. Video
  14. ID                                       : 1
  15. Format                                   : AVC
  16. Format/Info                              : Advanced Video Codec
  17. Format profile                           : High@L4.1
  18. Format settings                          : CABAC / 2 Ref Frames
  19. Format settings, CABAC                   : Yes
  20. Format settings, Reference frames        : 2 frames
  21. Codec ID                                 : V_MPEG4/ISO/AVC
  22. Duration                                 : 1 h 35 min
  23. Bit rate mode                            : Variable
  24. Bit rate                                 : 31.9 Mb/s
  25. Width                                    : 1 920 pixels
  26. Height                                   : 1 080 pixels
  27. Display aspect ratio                     : 16:9
  28. Frame rate mode                          : Constant
  29. Frame rate                               : 23.976 (24000/1001) FPS
  30. Color space                              : YUV
  31. Chroma subsampling                       : 4:2:0
  32. Bit depth                                : 8 bits
  33. Scan type                                : Progressive
  34. Bits/(Pixel*Frame)                       : 0.642
  35. Stream size                              : 21.3 GiB (89%)
  36. Title                                    : MPEG-4 AVC Video / 31943 kbps / 1080p / 23.976 fps / 16:9 / High Profile 4.1
  37. Language                                 : English
  38. Default                                  : Yes
  39. Forced                                   : No
  40.  
  41. Audio #1
  42. ID                                       : 2
  43. Format                                   : MLP FBA
  44. Format/Info                              : Meridian Lossless Packing FBA
  45. Commercial name                          : Dolby TrueHD
  46. Codec ID                                 : A_TRUEHD
  47. Duration                                 : 1 h 35 min
  48. Bit rate mode                            : Variable
  49. Bit rate                                 : 2 879 kb/s
  50. Maximum bit rate                         : 4 950 kb/s
  51. Channel(s)                               : 6 channels
  52. Channel layout                           : L R C LFE Ls Rs
  53. Sampling rate                            : 48.0 kHz
  54. Frame rate                               : 1 200.000 FPS (40 SPF)
  55. Compression mode                         : Lossless
  56. Stream size                              : 1.92 GiB (8%)
  57. Title                                    : Dolby TrueHD Audio / 5.1 / 48 kHz / 2879 kbps / 24-bit
  58. Language                                 : English
  59. Default                                  : Yes
  60. Forced                                   : No
  61.  
  62. Audio #2
  63. ID                                       : 3
  64. Format                                   : AC-3
  65. Format/Info                              : Audio Coding 3
  66. Commercial name                          : Dolby Digital
  67. Codec ID                                 : A_AC3
  68. Duration                                 : 1 h 35 min
  69. Bit rate mode                            : Constant
  70. Bit rate                                 : 640 kb/s
  71. Channel(s)                               : 6 channels
  72. Channel layout                           : L R C LFE Ls Rs
  73. Sampling rate                            : 48.0 kHz
  74. Frame rate                               : 31.250 FPS (1536 SPF)
  75. Bit depth                                : 16 bits
  76. Compression mode                         : Lossy
  77. Stream size                              : 437 MiB (2%)
  78. Title                                    : Compatibility Track / Dolby Digital Audio / 5.1 / 48 kHz / 640 kbps / 16-bit
  79. Language                                 : English
  80. Service kind                             : Complete Main
  81. Default                                  : No
  82. Forced                                   : No
  83.  
  84. Audio #3
  85. ID                                       : 4
  86. Format                                   : AC-3
  87. Format/Info                              : Audio Coding 3
  88. Commercial name                          : Dolby Digital
  89. Codec ID                                 : A_AC3
  90. Duration                                 : 1 h 35 min
  91. Bit rate mode                            : Constant
  92. Bit rate                                 : 224 kb/s
  93. Channel(s)                               : 2 channels
  94. Channel layout                           : L R
  95. Sampling rate                            : 48.0 kHz
  96. Frame rate                               : 31.250 FPS (1536 SPF)
  97. Bit depth                                : 16 bits
  98. Compression mode                         : Lossy
  99. Stream size                              : 153 MiB (1%)
  100. Title                                    : Commentary with Producer/Director Sean S. Cunningham and Author Peter M. Bracke
  101. Language                                 : English
  102. Service kind                             : Complete Main
  103. Default                                  : No
  104. Forced                                   : No
  105.  
  106. Text #1
  107. ID                                       : 5
  108. Format                                   : PGS
  109. Codec ID                                 : S_HDMV/PGS
  110. Codec ID/Info                            : Picture based subtitle format used on BDs/HD-DVDs
  111. Duration                                 : 1 h 31 min
  112. Bit rate                                 : 18.9 kb/s
  113. Count of elements                        : 1136
  114. Stream size                              : 12.4 MiB (0%)
  115. Language                                 : English
  116. Default                                  : No
  117. Forced                                   : No
  118.  
  119. Text #2
  120. ID                                       : 6
  121. Format                                   : PGS
  122. Codec ID                                 : S_HDMV/PGS
  123. Codec ID/Info                            : Picture based subtitle format used on BDs/HD-DVDs
  124. Duration                                 : 1 h 32 min
  125. Bit rate                                 : 23.5 kb/s
  126. Count of elements                        : 1534
  127. Stream size                              : 15.5 MiB (0%)
  128. Title                                    : SDH
  129. Language                                 : English
  130. Default                                  : No
  131. Forced                                   : No
  132.  
  133. Menu
  134. 00:00:00.000                             : en:Camp Crystal Lake, 1958
  135. 00:06:27.887                             : en:Prophet Of Doom
  136. 00:12:27.580                             : en:Setting Up Camp
  137. 00:19:08.773                             : en:Annie's Encounter
  138. 00:22:30.266                             : en:False Alarm
  139. 00:29:47.577                             : en:You're All Doomed
  140. 00:36:26.518                             : en:Jack And Marcie
  141. 00:47:00.776                             : en:Babes In The Woods
  142. 00:53:09.019                             : en:It's Not Funny Anymore
  143. 00:57:10.302                             : en:We'll Be Laughing About This Tomorrow
  144. 01:04:42.921                             : en:Bill
  145. 01:10:07.036                             : en:The Last One
  146. 01:15:26.439                             : en:Mrs. Voorhees
  147. 01:22:33.365                             : en:No Place To Hide
  148. 01:30:59.329                             : en:The Boy, Is He Dead Too?
RAW Paste Data
We use cookies for various purposes including analytics. By continuing to use Pastebin, you agree to our use of cookies as described in the Cookies Policy. OK, I Understand
Not a member of Pastebin yet?
Sign Up, it unlocks many cool features!
 
Top