daily pastebin goal
2%
SHARE
TWEET

Huntsman_UHD

iMN0 Jul 16th, 2017 91 Never
Not a member of Pastebin yet? Sign Up, it unlocks many cool features!
  1. General
  2. Unique ID                   : 220883523903407507798391742219811021935 (0xA62C9E89D66BF3EC855C51CCEEF3E46F)
  3. Complete name               : The.Huntsman.Winters.War.2016.Extended.Cut.2160p.10bit.HDR.BluRay.7.1.x265.HEVC-MZABI.mkv
  4. Format                      : Matroska
  5. Format version              : Version 4 / Version 2
  6. File size                   : 10.8 GiB
  7. Duration                    : 2 h 0 min
  8. Overall bit rate            : 12.8 Mb/s
  9. Encoded date                : UTC 2017-07-15 17:25:21
  10. Writing application         : mkvmerge v9.6.0 ('Slave To Your Mind') 64bit
  11. Writing library             : libebml v1.3.4 + libmatroska v1.4.5
  12.  
  13. Video
  14. ID                          : 1
  15. Format                      : HEVC
  16. Format/Info                 : High Efficiency Video Coding
  17. Format profile              : Main 10@L5@Main
  18. Codec ID                    : V_MPEGH/ISO/HEVC
  19. Duration                    : 2 h 0 min
  20. Bit rate                    : 12.0 Mb/s
  21. Width                       : 3 840 pixels
  22. Height                      : 1 600 pixels
  23. Display aspect ratio        : 2.40:1
  24. Frame rate mode             : Constant
  25. Frame rate                  : 23.976 (24000/1001) FPS
  26. Original frame rate         : 23.976 (23976/1000) FPS
  27. Color space                 : YUV
  28. Chroma subsampling          : 4:2:0
  29. Bit depth                   : 10 bits
  30. Bits/(Pixel*Frame)          : 0.081
  31. Stream size                 : 10.1 GiB (94%)
  32. Title                       : HEVC x265 10bit HDR BT2020 Video / 8000 kbps / 2160p / 23.976 fps / Main 10 Profile 5
  33. Writing library             : x265 1.9:[Linux][GCC 4.6.2][64 bit] 10bit
  34. Encoding settings           : wpp / ctu=64 / min-cu-size=8 / max-tu-size=32 / tu-intra-depth=1 / tu-inter-depth=1 / me=1 / subme=2 / merange=57 / no-rect / no-amp / max-merge=2 / temporal-mvp / no-early-skip / rdpenalty=0 / no-tskip / no-tskip-fast / strong-intra-smoothing / no-lossless / no-cu-lossless / no-constrained-intra / fast-intra / no-open-gop / no-temporal-layers / interlace=0 / keyint=250 / min-keyint=23 / scenecut=0 / rc-lookahead=15 / lookahead-slices=8 / bframes=4 / bframe-bias=0 / b-adapt=2 / ref=3 / limit-refs=3 / no-limit-modes / weightp / no-weightb / aq-mode=1 / qg-size=32 / aq-strength=1.00 / cbqpoffs=0 / crqpoffs=0 / rd=2 / psy-rd=2.00 / rdoq-level=0 / psy-rdoq=0.00 / signhide / deblock / sao / no-sao-non-deblock / b-pyramid / cutree / no-intra-refresh / rc=2 / pass / bitrate=12000 / qcomp=0.60 / qpmin=0 / qpmax=51 / qpstep=4 / cplxblur=20.0 / qblur=0.5 / ipratio=1.40 / pbratio=1.30
  35. Default                     : Yes
  36. Forced                      : No
  37. Color range                 : Limited
  38. Color primaries             : BT.2020
  39. Transfer characteristics    : SMPTE ST 2084
  40. Matrix coefficients         : BT.2020 non-constant
  41.  
  42. Audio #1
  43. ID                          : 2
  44. Format                      : AAC
  45. Format/Info                 : Advanced Audio Codec
  46. Format profile              : LC
  47. Codec ID                    : A_AAC
  48. Duration                    : 2 h 0 min
  49. Bit rate                    : 600 kb/s
  50. Channel(s)                  : 7 channels
  51. Channel(s)_Original         : 8 channels
  52. Channel positions           : Front: L C R, Side: L R, Back: L R, LFE
  53. Sampling rate               : 48.0 kHz
  54. Frame rate                  : 46.875 FPS (1024 spf)
  55. Compression mode            : Lossy
  56. Delay relative to video     : 9 ms
  57. Stream size                 : 516 MiB (5%)
  58. Title                       : LC-AAC / 7.1 / 48 kHz
  59. Language                    : English
  60. Default                     : Yes
  61. Forced                      : No
  62.  
  63. Audio #2
  64. ID                          : 3
  65. Format                      : AC-3
  66. Format/Info                 : Audio Coding 3
  67. Mode                        : Dolby Digital
  68. Format settings, Endianness : Big
  69. Codec ID                    : A_AC3
  70. Duration                    : 2 h 0 min
  71. Bit rate mode               : Constant
  72. Bit rate                    : 192 kb/s
  73. Channel(s)                  : 2 channels
  74. Channel positions           : Front: L R
  75. Sampling rate               : 48.0 kHz
  76. Frame rate                  : 31.250 FPS (1536 spf)
  77. Bit depth                   : 16 bits
  78. Compression mode            : Lossy
  79. Stream size                 : 165 MiB (1%)
  80. Title                       : Commentary by Director Cedric Nicolas-Troyan
  81. Language                    : English
  82. Service kind                : Complete Main
  83. Default                     : No
  84. Forced                      : No
  85.  
  86. Text #1
  87. ID                          : 4
  88. Format                      : PGS
  89. Muxing mode                 : zlib
  90. Codec ID                    : S_HDMV/PGS
  91. Codec ID/Info               : Picture based subtitle format used on BDs/HD-DVDs
  92. Duration                    : 1 h 59 min
  93. Bit rate                    : 8 522 b/s
  94. Count of elements           : 2652
  95. Stream size                 : 7.28 MiB (0%)
  96. Language                    : English
  97. Default                     : No
  98. Forced                      : No
  99.  
  100. Text #2
  101. ID                          : 5
  102. Format                      : PGS
  103. Muxing mode                 : zlib
  104. Codec ID                    : S_HDMV/PGS
  105. Codec ID/Info               : Picture based subtitle format used on BDs/HD-DVDs
  106. Duration                    : 1 h 59 min
  107. Bit rate                    : 5 629 b/s
  108. Count of elements           : 2198
  109. Stream size                 : 4.81 MiB (0%)
  110. Language                    : Arabic
  111. Default                     : No
  112. Forced                      : No
  113.  
  114. Menu
  115. 00:00:00.000                : en:Chapter 1
  116. 00:06:26.427                : en:Chapter 2
  117. 00:09:26.857                : en:Chapter 3
  118. 00:15:03.193                : en:Chapter 4
  119. 00:21:33.500                : en:Chapter 5
  120. 00:30:17.857                : en:Chapter 6
  121. 00:36:08.165                : en:Chapter 7
  122. 00:40:55.661                : en:Chapter 8
  123. 00:46:56.438                : en:Chapter 9
  124. 00:52:05.747                : en:Chapter 10
  125. 00:59:35.530                : en:Chapter 11
  126. 01:04:23.943                : en:Chapter 12
  127. 01:11:16.688                : en:Chapter 13
  128. 01:15:19.222                : en:Chapter 14
  129. 01:22:42.832                : en:Chapter 15
  130. 01:28:15.206                : en:Chapter 16
  131. 01:33:58.007                : en:Chapter 17
  132. 01:39:21.955                : en:Chapter 18
  133. 01:48:13.903                : en:Chapter 19
  134. 01:50:19.571                : en:Chapter 20
RAW Paste Data
We use cookies for various purposes including analytics. By continuing to use Pastebin, you agree to our use of cookies as described in the Cookies Policy. OK, I Understand
 
Top