Guest User

Untitled

a guest
May 28th, 2021
50
Never
Not a member of Pastebin yet? Sign Up, it unlocks many cool features!
  1. 05/28/2021 16:46:57 MainProcess MainThread session load_model VERBOSE Initializing plugin model: FAN
  2. 05/28/2021 16:46:58 MainProcess _load_0 multithreading check_and_raise_error DEBUG Thread error caught: [(<class 'OSError'>, OSError("Could not load meta information\n=== stderr ===\nffmpeg version 4.3.1 Copyright (c) 2000-2020 the FFmpeg developers\n built with gcc 10.2.1 (GCC) 20200726\n configuration: --disable-static --enable-shared --enable-gpl --enable-version3 --enable-sdl2 --enable-fontconfig --enable-gnutls --enable-iconv --enable-libass --enable-libdav1d --enable-libbluray --enable-libfreetype --enable-libmp3lame --enable-libopencore-amrnb --enable-libopencore-amrwb --enable-libopenjpeg --enable-libopus --enable-libshine --enable-libsnappy --enable-libsoxr --enable-libsrt --enable-libtheora --enable-libtwolame --enable-libvpx --enable-libwavpack --enable-libwebp --enable-libx264 --enable-libx265 --enable-libxml2 --enable-libzimg --enable-lzma --enable-zlib --enable-gmp --enable-libvidstab --enable-libvmaf --enable-libvorbis --enable-libvo-amrwbenc --enable-libmysofa --enable-libspeex --enable-libxvid --enable-libaom --enable-libgsm --enable-librav1e --disable-w32threads --enable-libmfx --enable-ffnvcodec --enable-cuda-llvm --enable-cuvid --enable-d3d11va --enable-nvenc --enable-nvdec --enable-dxva2 --enable-avisynth --enable-libopenmpt --enable-amf\n libavutil 56. 51.100 / 56. 51.100\n\n libavcodec 58. 91.100 / 58. 91.100\n libavformat 58. 45.100 / 58. 45.100\n libavdevice 58. 10.100 / 58. 10.100\n libavfilter 7. 85.100 / 7. 85.100\n libswscale 5. 7.100 / 5. 7.100\n libswresample 3. 7.100 / 3. 7.100\n libpostproc 55. 7.100 / 55. 7.100\nInput #0, mov,mp4,m4a,3gp,3g2,mj2, from 'E:\\DEEPFAKE\\input\\Sequence 01.mp4':\n Metadata:\n major_brand : mp42\n minor_version : 0\n compatible_brands: mp42mp41\n creation_time : 2021-05-28T06:21:22.000000Z\n Duration: 00:02:18.07, start: 0.000000, bitrate: 11191 kb/s\n Stream #0:0(eng): Video: h264 (Main) (avc1 / 0x31637661), yuv420p, 4096x2160 [SAR 1:1 DAR 256:135], 10873 kb/s, 30 fps, 30 tbr, 30k tbn, 60 tbc (default)\n Metadata:\n creation_time : 2021-05-28T06:21:22.000000Z\n handler_name : ?Mainconcept Video Media Handler\n encoder : AVC Coding\n Stream #0:1(eng): Audio: aac (LC) (mp4a / 0x6134706D), 48000 Hz, stereo, fltp, 317 kb/s (default)\n Metadata:\n creation_time : 2021-05-28T06:21:22.000000Z\n handler_name : #Mainconcept MP4 Sound Media Handler\nStream mapping:\n Stream #0:0 -> #0:0 (h264 (native) -> rawvideo (native))\nPress [q] to stop, [?] for help\nOutput #0, image2pipe, to 'pipe:':\n Metadata:\n major_brand : mp42\n minor_version : 0\n compatible_brands: mp42mp41\n encoder : Lavf58.45.100\n Stream #0:0(eng): Video: rawvideo (RGB[24] / 0x18424752), rgb24, 4096x2160 [SAR 1:1 DAR 256:135], q=2-31, 6370099 kb/s, 30 fps, 30 tbn, 30 tbc (default)\nffmpeg version 4.3.1 Copyright (c) 2000-2020 the FFmpeg developers\n built with gcc 10.2.1 (GCC) 20200726\n configuration: --disable-static --enable-shared --enable-gpl --enable-version3 --enable-sdl2 --enable-fontconfig --enable-gnutls --enable-iconv --enable-libass --enable-libdav1d --enable-libbluray --enable-libfreetype --enable-libmp3lame --enable-libopencore-amrnb --enable-libopencore-amrwb --enable-libopenjpeg --enable-libopus --enable-libshine --enable-libsnappy --enable-libsoxr --enable-libsrt --enable-libtheora --enable-libtwolame --enable-libvpx --enable-libwavpack --enable-libwebp --enable-libx264 --enable-libx265 --enable-libxml2 --enable-libzimg --enable-lzma --enable-zlib --enable-gmp --enable-libvidstab --enable-libvmaf --enable-libvorbis --enable-libvo-amrwbenc --enable-libmysofa --enable-libspeex --enable-libxvid --enable-libaom --enable-libgsm --enable-librav1e --disable-w32threads --enable-libmfx --enable-ffnvcodec --enable-cuda-llvm --enable-cuvid --enable-d3d11va --enable-nvenc --enable-nvdec --enable-dxva2 --enable-avisynth --enable-libopenmpt --enable-amf\n libavutil 56. 51.100 / 56. 51.100\n\n libavcodec 58. 91.100 / 58. 91.100\n libavformat 58. 45.100 / 58. 45.100\n libavdevice 58. 10.100 / 58. 10.100\n libavfilter 7. 85.100 / 7. 85.100\n libswscale 5. 7.100 / 5. 7.100\n libswresample 3. 7.100 / 3. 7.100\n libpostproc 55. 7.100 / 55. 7.100\nInput #0, mov,mp4,m4a,3gp,3g2,mj2, from 'E:\\DEEPFAKE\\input\\Sequence 01.mp4':\n Metadata:\n major_brand : mp42\n minor_version : 0\n compatible_brands: mp42mp41\n creation_time : 2021-05-28T06:21:22.000000Z\n Duration: 00:02:18.07, start: 0.000000, bitrate: 11191 kb/s\n Stream #0:0(eng): Video: h264 (Main) (avc1 / 0x31637661), yuv420p, 4096x2160 [SAR 1:1 DAR 256:135], 10873 kb/s, 30 fps, 30 tbr, 30k tbn, 60 tbc (default)\n Metadata:\n creation_time : 2021-05-28T06:21:22.000000Z\n handler_name : ?Mainconcept Video Media Handler\n encoder : AVC Coding\n Stream #0:1(eng): Audio: aac (LC) (mp4a / 0x6134706D), 48000 Hz, stereo, fltp, 317 kb/s (default)\n Metadata:\n creation_time : 2021-05-28T06:21:22.000000Z\n handler_name : #Mainconcept MP4 Sound Media Handler\nStream mapping:\n Stream #0:0 -> #0:0 (h264 (native) -> rawvideo (native))\nPress [q] to stop, [?] for help\nOutput #0, image2pipe, to 'pipe:':\n Metadata:\n major_brand : mp42\n minor_version : 0\n compatible_brands: mp42mp41\n encoder : Lavf58.45.100\n Stream #0:0(eng): Video: rawvideo (RGB[24] / 0x18424752), rgb24, 4096x2160 [SAR 1:1 DAR 256:135], q=2-31, 6370099 kb/s, 30 fps, 30 tbn, 30 tbc (default)\n Metadata:\n creation_time : 2021-05-28T06:21:22.000000Z\n handler_name : ?Mainconcept Video Media Handler"), <traceback object at 0x000001FA070782C0>)]
  3. 05/28/2021 16:46:58 MainProcess _load_0 multithreading run DEBUG Error in thread (_load_0): Could not load meta information\n=== stderr ===\nffmpeg version 4.3.1 Copyright (c) 2000-2020 the FFmpeg developers\n built with gcc 10.2.1 (GCC) 20200726\n configuration: --disable-static --enable-shared --enable-gpl --enable-version3 --enable-sdl2 --enable-fontconfig --enable-gnutls --enable-iconv --enable-libass --enable-libdav1d --enable-libbluray --enable-libfreetype --enable-libmp3lame --enable-libopencore-amrnb --enable-libopencore-amrwb --enable-libopenjpeg --enable-libopus --enable-libshine --enable-libsnappy --enable-libsoxr --enable-libsrt --enable-libtheora --enable-libtwolame --enable-libvpx --enable-libwavpack --enable-libwebp --enable-libx264 --enable-libx265 --enable-libxml2 --enable-libzimg --enable-lzma --enable-zlib --enable-gmp --enable-libvidstab --enable-libvmaf --enable-libvorbis --enable-libvo-amrwbenc --enable-libmysofa --enable-libspeex --enable-libxvid --enable-libaom --enable-libgsm --enable-librav1e --disable-w32threads --enable-libmfx --enable-ffnvcodec --enable-cuda-llvm --enable-cuvid --enable-d3d11va --enable-nvenc --enable-nvdec --enable-dxva2 --enable-avisynth --enable-libopenmpt --enable-amf\n libavutil 56. 51.100 / 56. 51.100\n\n libavcodec 58. 91.100 / 58. 91.100\n libavformat 58. 45.100 / 58. 45.100\n libavdevice 58. 10.100 / 58. 10.100\n libavfilter 7. 85.100 / 7. 85.100\n libswscale 5. 7.100 / 5. 7.100\n libswresample 3. 7.100 / 3. 7.100\n libpostproc 55. 7.100 / 55. 7.100\nInput #0, mov,mp4,m4a,3gp,3g2,mj2, from 'E:\DEEPFAKE\input\Sequence 01.mp4':\n Metadata:\n major_brand : mp42\n minor_version : 0\n compatible_brands: mp42mp41\n creation_time : 2021-05-28T06:21:22.000000Z\n Duration: 00:02:18.07, start: 0.000000, bitrate: 11191 kb/s\n Stream #0:0(eng): Video: h264 (Main) (avc1 / 0x31637661), yuv420p, 4096x2160 [SAR 1:1 DAR 256:135], 10873 kb/s, 30 fps, 30 tbr, 30k tbn, 60 tbc (default)\n Metadata:\n creation_time : 2021-05-28T06:21:22.000000Z\n handler_name : ?Mainconcept Video Media Handler\n encoder : AVC Coding\n Stream #0:1(eng): Audio: aac (LC) (mp4a / 0x6134706D), 48000 Hz, stereo, fltp, 317 kb/s (default)\n Metadata:\n creation_time : 2021-05-28T06:21:22.000000Z\n handler_name : #Mainconcept MP4 Sound Media Handler\nStream mapping:\n Stream #0:0 -> #0:0 (h264 (native) -> rawvideo (native))\nPress [q] to stop, [?] for help\nOutput #0, image2pipe, to 'pipe:':\n Metadata:\n major_brand : mp42\n minor_version : 0\n compatible_brands: mp42mp41\n encoder : Lavf58.45.100\n Stream #0:0(eng): Video: rawvideo (RGB[24] / 0x18424752), rgb24, 4096x2160 [SAR 1:1 DAR 256:135], q=2-31, 6370099 kb/s, 30 fps, 30 tbn, 30 tbc (default)\nffmpeg version 4.3.1 Copyright (c) 2000-2020 the FFmpeg developers\n built with gcc 10.2.1 (GCC) 20200726\n configuration: --disable-static --enable-shared --enable-gpl --enable-version3 --enable-sdl2 --enable-fontconfig --enable-gnutls --enable-iconv --enable-libass --enable-libdav1d --enable-libbluray --enable-libfreetype --enable-libmp3lame --enable-libopencore-amrnb --enable-libopencore-amrwb --enable-libopenjpeg --enable-libopus --enable-libshine --enable-libsnappy --enable-libsoxr --enable-libsrt --enable-libtheora --enable-libtwolame --enable-libvpx --enable-libwavpack --enable-libwebp --enable-libx264 --enable-libx265 --enable-libxml2 --enable-libzimg --enable-lzma --enable-zlib --enable-gmp --enable-libvidstab --enable-libvmaf --enable-libvorbis --enable-libvo-amrwbenc --enable-libmysofa --enable-libspeex --enable-libxvid --enable-libaom --enable-libgsm --enable-librav1e --disable-w32threads --enable-libmfx --enable-ffnvcodec --enable-cuda-llvm --enable-cuvid --enable-d3d11va --enable-nvenc --enable-nvdec --enable-dxva2 --enable-avisynth --enable-libopenmpt --enable-amf\n libavutil 56. 51.100 / 56. 51.100\n\n libavcodec 58. 91.100 / 58. 91.100\n libavformat 58. 45.100 / 58. 45.100\n libavdevice 58. 10.100 / 58. 10.100\n libavfilter 7. 85.100 / 7. 85.100\n libswscale 5. 7.100 / 5. 7.100\n libswresample 3. 7.100 / 3. 7.100\n libpostproc 55. 7.100 / 55. 7.100\nInput #0, mov,mp4,m4a,3gp,3g2,mj2, from 'E:\DEEPFAKE\input\Sequence 01.mp4':\n Metadata:\n major_brand : mp42\n minor_version : 0\n compatible_brands: mp42mp41\n creation_time : 2021-05-28T06:21:22.000000Z\n Duration: 00:02:18.07, start: 0.000000, bitrate: 11191 kb/s\n Stream #0:0(eng): Video: h264 (Main) (avc1 / 0x31637661), yuv420p, 4096x2160 [SAR 1:1 DAR 256:135], 10873 kb/s, 30 fps, 30 tbr, 30k tbn, 60 tbc (default)\n Metadata:\n creation_time : 2021-05-28T06:21:22.000000Z\n handler_name : ?Mainconcept Video Media Handler\n encoder : AVC Coding\n Stream #0:1(eng): Audio: aac (LC) (mp4a / 0x6134706D), 48000 Hz, stereo, fltp, 317 kb/s (default)\n Metadata:\n creation_time : 2021-05-28T06:21:22.000000Z\n handler_name : #Mainconcept MP4 Sound Media Handler\nStream mapping:\n Stream #0:0 -> #0:0 (h264 (native) -> rawvideo (native))\nPress [q] to stop, [?] for help\nOutput #0, image2pipe, to 'pipe:':\n Metadata:\n major_brand : mp42\n minor_version : 0\n compatible_brands: mp42mp41\n encoder : Lavf58.45.100\n Stream #0:0(eng): Video: rawvideo (RGB[24] / 0x18424752), rgb24, 4096x2160 [SAR 1:1 DAR 256:135], q=2-31, 6370099 kb/s, 30 fps, 30 tbn, 30 tbc (default)\n Metadata:\n creation_time : 2021-05-28T06:21:22.000000Z\n handler_name : ?Mainconcept Video Media Handler
  4. 05/28/2021 16:58:38 MainProcess MainThread _base initialize INFO Initialized FAN (Align) with batchsize of 12
  5. 05/28/2021 16:58:38 MainProcess MainThread multithreading start DEBUG Starting thread(s): 'align_fan_input'
  6. 05/28/2021 16:58:38 MainProcess MainThread multithreading start DEBUG Starting thread 1 of 1: 'align_fan_input_0'
  7. 05/28/2021 16:58:38 MainProcess align_fan_input_0 _base _thread_process DEBUG threading: (function: '_process_input')
  8. 05/28/2021 16:58:38 MainProcess MainThread multithreading start DEBUG Started all threads 'align_fan_input': 1
  9. 05/28/2021 16:58:38 MainProcess MainThread multithreading start DEBUG Starting thread(s): 'align_fan_predict'
  10. 05/28/2021 16:58:38 MainProcess MainThread multithreading start DEBUG Starting thread 1 of 1: 'align_fan_predict_0'
  11. 05/28/2021 16:58:38 MainProcess align_fan_predict_0 _base _thread_process DEBUG threading: (function: '_predict')
  12. 05/28/2021 16:58:38 MainProcess MainThread multithreading start DEBUG Started all threads 'align_fan_predict': 1
  13. 05/28/2021 16:58:38 MainProcess MainThread multithreading start DEBUG Starting thread(s): 'align_fan_output'
  14. 05/28/2021 16:58:38 MainProcess MainThread multithreading start DEBUG Starting thread 1 of 1: 'align_fan_output_0'
  15. 05/28/2021 16:58:38 MainProcess align_fan_output_0 _base _thread_process DEBUG threading: (function: '_process_output')
  16. 05/28/2021 16:58:38 MainProcess MainThread multithreading start DEBUG Started all threads 'align_fan_output': 1
  17. 05/28/2021 16:58:38 MainProcess MainThread pipeline _launch_plugin DEBUG Launched align plugin
  18. 05/28/2021 16:58:38 MainProcess MainThread pipeline _launch_plugin DEBUG Launching mask_0 plugin
  19. 05/28/2021 16:58:38 MainProcess MainThread pipeline _launch_plugin DEBUG in_qname: extract0_mask_0_in, out_qname: extract0_mask_1_in
  20. 05/28/2021 16:58:38 MainProcess MainThread _base initialize DEBUG initialize Mask: (args: (), kwargs: {'in_queue': <queue.Queue object at 0x000001FA008ED910>, 'out_queue': <queue.Queue object at 0x000001FA008ED6D0>})
  21. 05/28/2021 16:58:38 MainProcess MainThread _base initialize INFO Initializing Components (Mask)...
  22. 05/28/2021 16:58:38 MainProcess MainThread queue_manager get_queue DEBUG QueueManager getting: 'mask0_predict_components'
  23. 05/28/2021 16:58:38 MainProcess MainThread queue_manager add_queue DEBUG QueueManager adding: (name: 'mask0_predict_components', maxsize: 1, create_new: False)
  24. 05/28/2021 16:58:38 MainProcess MainThread queue_manager add_queue DEBUG QueueManager added: (name: 'mask0_predict_components')
  25. 05/28/2021 16:58:38 MainProcess MainThread queue_manager get_queue DEBUG QueueManager got: 'mask0_predict_components'
  26. 05/28/2021 16:58:38 MainProcess MainThread queue_manager get_queue DEBUG QueueManager getting: 'mask0_post_components'
  27. 05/28/2021 16:58:38 MainProcess MainThread queue_manager add_queue DEBUG QueueManager adding: (name: 'mask0_post_components', maxsize: 1, create_new: False)
  28. 05/28/2021 16:58:38 MainProcess MainThread queue_manager add_queue DEBUG QueueManager added: (name: 'mask0_post_components')
  29. 05/28/2021 16:58:38 MainProcess MainThread queue_manager get_queue DEBUG QueueManager got: 'mask0_post_components'
  30. 05/28/2021 16:58:38 MainProcess MainThread _base _compile_threads DEBUG Compiling mask threads
  31. 05/28/2021 16:58:38 MainProcess MainThread _base _add_thread DEBUG Adding thread: (name: mask_components_input, function: <bound method Extractor._process_input of <plugins.extract.mask.components.Mask object at 0x000001FA008B6F40>>, in_queue: <queue.Queue object at 0x000001FA008ED910>, out_queue: <queue.Queue object at 0x000001FA5D8B80D0>)
  32. 05/28/2021 16:58:38 MainProcess MainThread multithreading __init__ DEBUG Initializing MultiThread: (target: 'mask_components_input', thread_count: 1)
  33. 05/28/2021 16:58:38 MainProcess MainThread multithreading __init__ DEBUG Initialized MultiThread: 'mask_components_input'
  34. 05/28/2021 16:58:38 MainProcess MainThread _base _add_thread DEBUG Added thread: mask_components_input
  35. 05/28/2021 16:58:38 MainProcess MainThread _base _add_thread DEBUG Adding thread: (name: mask_components_predict, function: <bound method Masker._predict of <plugins.extract.mask.components.Mask object at 0x000001FA008B6F40>>, in_queue: <queue.Queue object at 0x000001FA5D8B80D0>, out_queue: <queue.Queue object at 0x000001FA5D8B82B0>)
  36. 05/28/2021 16:58:38 MainProcess MainThread multithreading __init__ DEBUG Initializing MultiThread: (target: 'mask_components_predict', thread_count: 1)
  37. 05/28/2021 16:58:38 MainProcess MainThread multithreading __init__ DEBUG Initialized MultiThread: 'mask_components_predict'
  38. 05/28/2021 16:58:38 MainProcess MainThread _base _add_thread DEBUG Added thread: mask_components_predict
  39. 05/28/2021 16:58:38 MainProcess MainThread _base _add_thread DEBUG Adding thread: (name: mask_components_output, function: <bound method Extractor._process_output of <plugins.extract.mask.components.Mask object at 0x000001FA008B6F40>>, in_queue: <queue.Queue object at 0x000001FA5D8B82B0>, out_queue: <queue.Queue object at 0x000001FA008ED6D0>)
  40. 05/28/2021 16:58:38 MainProcess MainThread multithreading __init__ DEBUG Initializing MultiThread: (target: 'mask_components_output', thread_count: 1)
  41. 05/28/2021 16:58:38 MainProcess MainThread multithreading __init__ DEBUG Initialized MultiThread: 'mask_components_output'
  42. 05/28/2021 16:58:38 MainProcess MainThread _base _add_thread DEBUG Added thread: mask_components_output
  43. 05/28/2021 16:58:38 MainProcess MainThread _base _compile_threads DEBUG Compiled mask threads: [<lib.multithreading.MultiThread object at 0x000001FA15EA52E0>, <lib.multithreading.MultiThread object at 0x000001FA5D8B8430>, <lib.multithreading.MultiThread object at 0x000001FA5D8B8460>]
  44. 05/28/2021 16:58:38 MainProcess MainThread components init_model DEBUG No mask model to initialize
  45. 05/28/2021 16:58:38 MainProcess MainThread _base initialize INFO Initialized Components (Mask) with batchsize of 1
  46. 05/28/2021 16:58:38 MainProcess MainThread multithreading start DEBUG Starting thread(s): 'mask_components_input'
  47. 05/28/2021 16:58:38 MainProcess MainThread multithreading start DEBUG Starting thread 1 of 1: 'mask_components_input_0'
  48. 05/28/2021 16:58:38 MainProcess mask_components_input_0 _base _thread_process DEBUG threading: (function: '_process_input')
  49. 05/28/2021 16:58:38 MainProcess MainThread multithreading start DEBUG Started all threads 'mask_components_input': 1
  50. 05/28/2021 16:58:38 MainProcess MainThread multithreading start DEBUG Starting thread(s): 'mask_components_predict'
  51. 05/28/2021 16:58:38 MainProcess MainThread multithreading start DEBUG Starting thread 1 of 1: 'mask_components_predict_0'
  52. 05/28/2021 16:58:38 MainProcess mask_components_predict_0 _base _thread_process DEBUG threading: (function: '_predict')
  53. 05/28/2021 16:58:38 MainProcess MainThread multithreading start DEBUG Started all threads 'mask_components_predict': 1
  54. 05/28/2021 16:58:38 MainProcess MainThread multithreading start DEBUG Starting thread(s): 'mask_components_output'
  55. 05/28/2021 16:58:38 MainProcess MainThread multithreading start DEBUG Starting thread 1 of 1: 'mask_components_output_0'
  56. 05/28/2021 16:58:38 MainProcess mask_components_output_0 _base _thread_process DEBUG threading: (function: '_process_output')
  57. 05/28/2021 16:58:38 MainProcess MainThread multithreading start DEBUG Started all threads 'mask_components_output': 1
  58. 05/28/2021 16:58:38 MainProcess MainThread pipeline _launch_plugin DEBUG Launched mask_0 plugin
  59. 05/28/2021 16:58:38 MainProcess MainThread pipeline _launch_plugin DEBUG Launching mask_1 plugin
  60. 05/28/2021 16:58:38 MainProcess MainThread pipeline _launch_plugin DEBUG in_qname: extract0_mask_1_in, out_qname: extract0_mask_1_out
  61. 05/28/2021 16:58:38 MainProcess MainThread _base initialize DEBUG initialize Mask: (args: (), kwargs: {'in_queue': <queue.Queue object at 0x000001FA008ED6D0>, 'out_queue': <queue.Queue object at 0x000001FA008EDC70>})
  62. 05/28/2021 16:58:38 MainProcess MainThread _base initialize INFO Initializing Extended (Mask)...
  63. 05/28/2021 16:58:38 MainProcess MainThread queue_manager get_queue DEBUG QueueManager getting: 'mask0_predict_extended'
  64. 05/28/2021 16:58:38 MainProcess MainThread queue_manager add_queue DEBUG QueueManager adding: (name: 'mask0_predict_extended', maxsize: 1, create_new: False)
  65. 05/28/2021 16:58:38 MainProcess MainThread queue_manager add_queue DEBUG QueueManager added: (name: 'mask0_predict_extended')
  66. 05/28/2021 16:58:38 MainProcess MainThread queue_manager get_queue DEBUG QueueManager got: 'mask0_predict_extended'
  67. 05/28/2021 16:58:38 MainProcess MainThread queue_manager get_queue DEBUG QueueManager getting: 'mask0_post_extended'
  68. 05/28/2021 16:58:38 MainProcess MainThread queue_manager add_queue DEBUG QueueManager adding: (name: 'mask0_post_extended', maxsize: 1, create_new: False)
  69. 05/28/2021 16:58:38 MainProcess MainThread queue_manager add_queue DEBUG QueueManager added: (name: 'mask0_post_extended')
  70. 05/28/2021 16:58:38 MainProcess MainThread queue_manager get_queue DEBUG QueueManager got: 'mask0_post_extended'
  71. 05/28/2021 16:58:38 MainProcess MainThread _base _compile_threads DEBUG Compiling mask threads
  72. 05/28/2021 16:58:38 MainProcess MainThread _base _add_thread DEBUG Adding thread: (name: mask_extended_input, function: <bound method Extractor._process_input of <plugins.extract.mask.extended.Mask object at 0x000001FA008CED00>>, in_queue: <queue.Queue object at 0x000001FA008ED6D0>, out_queue: <queue.Queue object at 0x000001FA5D8B8C40>)
  73. 05/28/2021 16:58:38 MainProcess MainThread multithreading __init__ DEBUG Initializing MultiThread: (target: 'mask_extended_input', thread_count: 1)
  74. 05/28/2021 16:58:38 MainProcess MainThread multithreading __init__ DEBUG Initialized MultiThread: 'mask_extended_input'
  75. 05/28/2021 16:58:38 MainProcess MainThread _base _add_thread DEBUG Added thread: mask_extended_input
  76. 05/28/2021 16:58:38 MainProcess MainThread _base _add_thread DEBUG Adding thread: (name: mask_extended_predict, function: <bound method Masker._predict of <plugins.extract.mask.extended.Mask object at 0x000001FA008CED00>>, in_queue: <queue.Queue object at 0x000001FA5D8B8C40>, out_queue: <queue.Queue object at 0x000001FA5D8B8E20>)
  77. 05/28/2021 16:58:38 MainProcess MainThread multithreading __init__ DEBUG Initializing MultiThread: (target: 'mask_extended_predict', thread_count: 1)
  78. 05/28/2021 16:58:38 MainProcess MainThread multithreading __init__ DEBUG Initialized MultiThread: 'mask_extended_predict'
  79. 05/28/2021 16:58:38 MainProcess MainThread _base _add_thread DEBUG Added thread: mask_extended_predict
  80. 05/28/2021 16:58:38 MainProcess MainThread _base _add_thread DEBUG Adding thread: (name: mask_extended_output, function: <bound method Extractor._process_output of <plugins.extract.mask.extended.Mask object at 0x000001FA008CED00>>, in_queue: <queue.Queue object at 0x000001FA5D8B8E20>, out_queue: <queue.Queue object at 0x000001FA008EDC70>)
  81. 05/28/2021 16:58:38 MainProcess MainThread multithreading __init__ DEBUG Initializing MultiThread: (target: 'mask_extended_output', thread_count: 1)
  82. 05/28/2021 16:58:38 MainProcess MainThread multithreading __init__ DEBUG Initialized MultiThread: 'mask_extended_output'
  83. 05/28/2021 16:58:38 MainProcess MainThread _base _add_thread DEBUG Added thread: mask_extended_output
  84. 05/28/2021 16:58:38 MainProcess MainThread _base _compile_threads DEBUG Compiled mask threads: [<lib.multithreading.MultiThread object at 0x000001FA5D8B8490>, <lib.multithreading.MultiThread object at 0x000001FA5D8B8FA0>, <lib.multithreading.MultiThread object at 0x000001FA5D8B8FD0>]
  85. 05/28/2021 16:58:38 MainProcess MainThread extended init_model DEBUG No mask model to initialize
  86. 05/28/2021 16:58:38 MainProcess MainThread _base initialize INFO Initialized Extended (Mask) with batchsize of 1
  87. 05/28/2021 16:58:38 MainProcess MainThread multithreading start DEBUG Starting thread(s): 'mask_extended_input'
  88. 05/28/2021 16:58:38 MainProcess MainThread multithreading start DEBUG Starting thread 1 of 1: 'mask_extended_input_0'
  89. 05/28/2021 16:58:38 MainProcess mask_extended_input_0 _base _thread_process DEBUG threading: (function: '_process_input')
  90. 05/28/2021 16:58:38 MainProcess MainThread multithreading start DEBUG Started all threads 'mask_extended_input': 1
  91. 05/28/2021 16:58:38 MainProcess MainThread multithreading start DEBUG Starting thread(s): 'mask_extended_predict'
  92. 05/28/2021 16:58:38 MainProcess MainThread multithreading start DEBUG Starting thread 1 of 1: 'mask_extended_predict_0'
  93. 05/28/2021 16:58:38 MainProcess mask_extended_predict_0 _base _thread_process DEBUG threading: (function: '_predict')
  94. 05/28/2021 16:58:38 MainProcess MainThread multithreading start DEBUG Started all threads 'mask_extended_predict': 1
  95. 05/28/2021 16:58:38 MainProcess MainThread multithreading start DEBUG Starting thread(s): 'mask_extended_output'
  96. 05/28/2021 16:58:38 MainProcess MainThread multithreading start DEBUG Starting thread 1 of 1: 'mask_extended_output_0'
  97. 05/28/2021 16:58:38 MainProcess mask_extended_output_0 _base _thread_process DEBUG threading: (function: '_process_output')
  98. 05/28/2021 16:58:38 MainProcess MainThread multithreading start DEBUG Started all threads 'mask_extended_output': 1
  99. 05/28/2021 16:58:38 MainProcess MainThread pipeline _launch_plugin DEBUG Launched mask_1 plugin
  100. 05/28/2021 16:58:38 MainProcess MainThread multithreading check_and_raise_error DEBUG Thread error caught: [(<class 'OSError'>, OSError("Could not load meta information\n=== stderr ===\nffmpeg version 4.3.1 Copyright (c) 2000-2020 the FFmpeg developers\n built with gcc 10.2.1 (GCC) 20200726\n configuration: --disable-static --enable-shared --enable-gpl --enable-version3 --enable-sdl2 --enable-fontconfig --enable-gnutls --enable-iconv --enable-libass --enable-libdav1d --enable-libbluray --enable-libfreetype --enable-libmp3lame --enable-libopencore-amrnb --enable-libopencore-amrwb --enable-libopenjpeg --enable-libopus --enable-libshine --enable-libsnappy --enable-libsoxr --enable-libsrt --enable-libtheora --enable-libtwolame --enable-libvpx --enable-libwavpack --enable-libwebp --enable-libx264 --enable-libx265 --enable-libxml2 --enable-libzimg --enable-lzma --enable-zlib --enable-gmp --enable-libvidstab --enable-libvmaf --enable-libvorbis --enable-libvo-amrwbenc --enable-libmysofa --enable-libspeex --enable-libxvid --enable-libaom --enable-libgsm --enable-librav1e --disable-w32threads --enable-libmfx --enable-ffnvcodec --enable-cuda-llvm --enable-cuvid --enable-d3d11va --enable-nvenc --enable-nvdec --enable-dxva2 --enable-avisynth --enable-libopenmpt --enable-amf\n libavutil 56. 51.100 / 56. 51.100\n\n libavcodec 58. 91.100 / 58. 91.100\n libavformat 58. 45.100 / 58. 45.100\n libavdevice 58. 10.100 / 58. 10.100\n libavfilter 7. 85.100 / 7. 85.100\n libswscale 5. 7.100 / 5. 7.100\n libswresample 3. 7.100 / 3. 7.100\n libpostproc 55. 7.100 / 55. 7.100\nInput #0, mov,mp4,m4a,3gp,3g2,mj2, from 'E:\\DEEPFAKE\\input\\Sequence 01.mp4':\n Metadata:\n major_brand : mp42\n minor_version : 0\n compatible_brands: mp42mp41\n creation_time : 2021-05-28T06:21:22.000000Z\n Duration: 00:02:18.07, start: 0.000000, bitrate: 11191 kb/s\n Stream #0:0(eng): Video: h264 (Main) (avc1 / 0x31637661), yuv420p, 4096x2160 [SAR 1:1 DAR 256:135], 10873 kb/s, 30 fps, 30 tbr, 30k tbn, 60 tbc (default)\n Metadata:\n creation_time : 2021-05-28T06:21:22.000000Z\n handler_name : ?Mainconcept Video Media Handler\n encoder : AVC Coding\n Stream #0:1(eng): Audio: aac (LC) (mp4a / 0x6134706D), 48000 Hz, stereo, fltp, 317 kb/s (default)\n Metadata:\n creation_time : 2021-05-28T06:21:22.000000Z\n handler_name : #Mainconcept MP4 Sound Media Handler\nStream mapping:\n Stream #0:0 -> #0:0 (h264 (native) -> rawvideo (native))\nPress [q] to stop, [?] for help\nOutput #0, image2pipe, to 'pipe:':\n Metadata:\n major_brand : mp42\n minor_version : 0\n compatible_brands: mp42mp41\n encoder : Lavf58.45.100\n Stream #0:0(eng): Video: rawvideo (RGB[24] / 0x18424752), rgb24, 4096x2160 [SAR 1:1 DAR 256:135], q=2-31, 6370099 kb/s, 30 fps, 30 tbn, 30 tbc (default)\nffmpeg version 4.3.1 Copyright (c) 2000-2020 the FFmpeg developers\n built with gcc 10.2.1 (GCC) 20200726\n configuration: --disable-static --enable-shared --enable-gpl --enable-version3 --enable-sdl2 --enable-fontconfig --enable-gnutls --enable-iconv --enable-libass --enable-libdav1d --enable-libbluray --enable-libfreetype --enable-libmp3lame --enable-libopencore-amrnb --enable-libopencore-amrwb --enable-libopenjpeg --enable-libopus --enable-libshine --enable-libsnappy --enable-libsoxr --enable-libsrt --enable-libtheora --enable-libtwolame --enable-libvpx --enable-libwavpack --enable-libwebp --enable-libx264 --enable-libx265 --enable-libxml2 --enable-libzimg --enable-lzma --enable-zlib --enable-gmp --enable-libvidstab --enable-libvmaf --enable-libvorbis --enable-libvo-amrwbenc --enable-libmysofa --enable-libspeex --enable-libxvid --enable-libaom --enable-libgsm --enable-librav1e --disable-w32threads --enable-libmfx --enable-ffnvcodec --enable-cuda-llvm --enable-cuvid --enable-d3d11va --enable-nvenc --enable-nvdec --enable-dxva2 --enable-avisynth --enable-libopenmpt --enable-amf\n libavutil 56. 51.100 / 56. 51.100\n\n libavcodec 58. 91.100 / 58. 91.100\n libavformat 58. 45.100 / 58. 45.100\n libavdevice 58. 10.100 / 58. 10.100\n libavfilter 7. 85.100 / 7. 85.100\n libswscale 5. 7.100 / 5. 7.100\n libswresample 3. 7.100 / 3. 7.100\n libpostproc 55. 7.100 / 55. 7.100\nInput #0, mov,mp4,m4a,3gp,3g2,mj2, from 'E:\\DEEPFAKE\\input\\Sequence 01.mp4':\n Metadata:\n major_brand : mp42\n minor_version : 0\n compatible_brands: mp42mp41\n creation_time : 2021-05-28T06:21:22.000000Z\n Duration: 00:02:18.07, start: 0.000000, bitrate: 11191 kb/s\n Stream #0:0(eng): Video: h264 (Main) (avc1 / 0x31637661), yuv420p, 4096x2160 [SAR 1:1 DAR 256:135], 10873 kb/s, 30 fps, 30 tbr, 30k tbn, 60 tbc (default)\n Metadata:\n creation_time : 2021-05-28T06:21:22.000000Z\n handler_name : ?Mainconcept Video Media Handler\n encoder : AVC Coding\n Stream #0:1(eng): Audio: aac (LC) (mp4a / 0x6134706D), 48000 Hz, stereo, fltp, 317 kb/s (default)\n Metadata:\n creation_time : 2021-05-28T06:21:22.000000Z\n handler_name : #Mainconcept MP4 Sound Media Handler\nStream mapping:\n Stream #0:0 -> #0:0 (h264 (native) -> rawvideo (native))\nPress [q] to stop, [?] for help\nOutput #0, image2pipe, to 'pipe:':\n Metadata:\n major_brand : mp42\n minor_version : 0\n compatible_brands: mp42mp41\n encoder : Lavf58.45.100\n Stream #0:0(eng): Video: rawvideo (RGB[24] / 0x18424752), rgb24, 4096x2160 [SAR 1:1 DAR 256:135], q=2-31, 6370099 kb/s, 30 fps, 30 tbn, 30 tbc (default)\n Metadata:\n creation_time : 2021-05-28T06:21:22.000000Z\n handler_name : ?Mainconcept Video Media Handler"), <traceback object at 0x000001FA3857DD80>)]
  101. Traceback (most recent call last):
  102. File "C:\Users\User\faceswap\lib\cli\launcher.py", line 182, in execute_script
  103. process.process()
  104. File "C:\Users\User\faceswap\scripts\extract.py", line 119, in process
  105. self._run_extraction()
  106. File "C:\Users\User\faceswap\scripts\extract.py", line 207, in _run_extraction
  107. self._check_thread_error()
  108. File "C:\Users\User\faceswap\scripts\extract.py", line 238, in _check_thread_error
  109. thread.check_and_raise_error()
  110. File "C:\Users\User\faceswap\lib\multithreading.py", line 84, in check_and_raise_error
  111. raise error[1].with_traceback(error[2])
  112. File "C:\Users\User\faceswap\lib\multithreading.py", line 37, in run
  113. self._target(*self._args, **self._kwargs)
  114. File "C:\Users\User\faceswap\scripts\extract.py", line 152, in _load
  115. for filename, image in self._images.load():
  116. File "C:\Users\User\faceswap\lib\image.py", line 1184, in load
  117. self._thread.check_and_raise_error()
  118. File "C:\Users\User\faceswap\lib\multithreading.py", line 84, in check_and_raise_error
  119. raise error[1].with_traceback(error[2])
  120. File "C:\Users\User\faceswap\lib\multithreading.py", line 37, in run
  121. self._target(*self._args, **self._kwargs)
  122. File "C:\Users\User\faceswap\lib\image.py", line 1090, in _process
  123. for retval in iterator():
  124. File "C:\Users\User\faceswap\lib\image.py", line 1113, in _from_video
  125. reader = imageio.get_reader(self.location, "ffmpeg")
  126. File "C:\Users\User\MiniConda3\envs\faceswap\lib\site-packages\imageio\core\functions.py", line 186, in get_reader
  127. return format.get_reader(request)
  128. File "C:\Users\User\MiniConda3\envs\faceswap\lib\site-packages\imageio\core\format.py", line 170, in get_reader
  129. return self.Reader(self, request)
  130. File "C:\Users\User\faceswap\lib\image.py", line 38, in __init__
  131. super().__init__(format, request)
  132. File "C:\Users\User\MiniConda3\envs\faceswap\lib\site-packages\imageio\core\format.py", line 221, in __init__
  133. self._open(**self.request.kwargs.copy())
  134. File "C:\Users\User\MiniConda3\envs\faceswap\lib\site-packages\imageio\plugins\ffmpeg.py", line 323, in _open
  135. self._initialize()
  136. File "C:\Users\User\faceswap\lib\image.py", line 221, in _initialize
  137. self._meta.update(self._read_gen.__next__())
  138. File "C:\Users\User\MiniConda3\envs\faceswap\lib\site-packages\imageio_ffmpeg\_io.py", line 174, in read_frames
  139. raise IOError(fmt.format(err2))
  140. OSError: Could not load meta information
  141. === stderr ===
  142. ffmpeg version 4.3.1 Copyright (c) 2000-2020 the FFmpeg developers
  143. built with gcc 10.2.1 (GCC) 20200726
  144. configuration: --disable-static --enable-shared --enable-gpl --enable-version3 --enable-sdl2 --enable-fontconfig --enable-gnutls --enable-iconv --enable-libass --enable-libdav1d --enable-libbluray --enable-libfreetype --enable-libmp3lame --enable-libopencore-amrnb --enable-libopencore-amrwb --enable-libopenjpeg --enable-libopus --enable-libshine --enable-libsnappy --enable-libsoxr --enable-libsrt --enable-libtheora --enable-libtwolame --enable-libvpx --enable-libwavpack --enable-libwebp --enable-libx264 --enable-libx265 --enable-libxml2 --enable-libzimg --enable-lzma --enable-zlib --enable-gmp --enable-libvidstab --enable-libvmaf --enable-libvorbis --enable-libvo-amrwbenc --enable-libmysofa --enable-libspeex --enable-libxvid --enable-libaom --enable-libgsm --enable-librav1e --disable-w32threads --enable-libmfx --enable-ffnvcodec --enable-cuda-llvm --enable-cuvid --enable-d3d11va --enable-nvenc --enable-nvdec --enable-dxva2 --enable-avisynth --enable-libopenmpt --enable-amf
  145. libavutil 56. 51.100 / 56. 51.100
  146.  
  147. libavcodec 58. 91.100 / 58. 91.100
  148. libavformat 58. 45.100 / 58. 45.100
  149. libavdevice 58. 10.100 / 58. 10.100
  150. libavfilter 7. 85.100 / 7. 85.100
  151. libswscale 5. 7.100 / 5. 7.100
  152. libswresample 3. 7.100 / 3. 7.100
  153. libpostproc 55. 7.100 / 55. 7.100
  154. Input #0, mov,mp4,m4a,3gp,3g2,mj2, from 'E:\DEEPFAKE\input\Sequence 01.mp4':
  155. Metadata:
  156. major_brand : mp42
  157. minor_version : 0
  158. compatible_brands: mp42mp41
  159. creation_time : 2021-05-28T06:21:22.000000Z
  160. Duration: 00:02:18.07, start: 0.000000, bitrate: 11191 kb/s
  161. Stream #0:0(eng): Video: h264 (Main) (avc1 / 0x31637661), yuv420p, 4096x2160 [SAR 1:1 DAR 256:135], 10873 kb/s, 30 fps, 30 tbr, 30k tbn, 60 tbc (default)
  162. Metadata:
  163. creation_time : 2021-05-28T06:21:22.000000Z
  164. handler_name : ?Mainconcept Video Media Handler
  165. encoder : AVC Coding
  166. Stream #0:1(eng): Audio: aac (LC) (mp4a / 0x6134706D), 48000 Hz, stereo, fltp, 317 kb/s (default)
  167. Metadata:
  168. creation_time : 2021-05-28T06:21:22.000000Z
  169. handler_name : #Mainconcept MP4 Sound Media Handler
  170. Stream mapping:
  171. Stream #0:0 -> #0:0 (h264 (native) -> rawvideo (native))
  172. Press [q] to stop, [?] for help
  173. Output #0, image2pipe, to 'pipe:':
  174. Metadata:
  175. major_brand : mp42
  176. minor_version : 0
  177. compatible_brands: mp42mp41
  178. encoder : Lavf58.45.100
  179. Stream #0:0(eng): Video: rawvideo (RGB[24] / 0x18424752), rgb24, 4096x2160 [SAR 1:1 DAR 256:135], q=2-31, 6370099 kb/s, 30 fps, 30 tbn, 30 tbc (default)
  180. ffmpeg version 4.3.1 Copyright (c) 2000-2020 the FFmpeg developers
  181. built with gcc 10.2.1 (GCC) 20200726
  182. configuration: --disable-static --enable-shared --enable-gpl --enable-version3 --enable-sdl2 --enable-fontconfig --enable-gnutls --enable-iconv --enable-libass --enable-libdav1d --enable-libbluray --enable-libfreetype --enable-libmp3lame --enable-libopencore-amrnb --enable-libopencore-amrwb --enable-libopenjpeg --enable-libopus --enable-libshine --enable-libsnappy --enable-libsoxr --enable-libsrt --enable-libtheora --enable-libtwolame --enable-libvpx --enable-libwavpack --enable-libwebp --enable-libx264 --enable-libx265 --enable-libxml2 --enable-libzimg --enable-lzma --enable-zlib --enable-gmp --enable-libvidstab --enable-libvmaf --enable-libvorbis --enable-libvo-amrwbenc --enable-libmysofa --enable-libspeex --enable-libxvid --enable-libaom --enable-libgsm --enable-librav1e --disable-w32threads --enable-libmfx --enable-ffnvcodec --enable-cuda-llvm --enable-cuvid --enable-d3d11va --enable-nvenc --enable-nvdec --enable-dxva2 --enable-avisynth --enable-libopenmpt --enable-amf
  183. libavutil 56. 51.100 / 56. 51.100
  184.  
  185. libavcodec 58. 91.100 / 58. 91.100
  186. libavformat 58. 45.100 / 58. 45.100
  187. libavdevice 58. 10.100 / 58. 10.100
  188. libavfilter 7. 85.100 / 7. 85.100
  189. libswscale 5. 7.100 / 5. 7.100
  190. libswresample 3. 7.100 / 3. 7.100
  191. libpostproc 55. 7.100 / 55. 7.100
  192. Input #0, mov,mp4,m4a,3gp,3g2,mj2, from 'E:\DEEPFAKE\input\Sequence 01.mp4':
  193. Metadata:
  194. major_brand : mp42
  195. minor_version : 0
  196. compatible_brands: mp42mp41
  197. creation_time : 2021-05-28T06:21:22.000000Z
  198. Duration: 00:02:18.07, start: 0.000000, bitrate: 11191 kb/s
  199. Stream #0:0(eng): Video: h264 (Main) (avc1 / 0x31637661), yuv420p, 4096x2160 [SAR 1:1 DAR 256:135], 10873 kb/s, 30 fps, 30 tbr, 30k tbn, 60 tbc (default)
  200. Metadata:
  201. creation_time : 2021-05-28T06:21:22.000000Z
  202. handler_name : ?Mainconcept Video Media Handler
  203. encoder : AVC Coding
  204. Stream #0:1(eng): Audio: aac (LC) (mp4a / 0x6134706D), 48000 Hz, stereo, fltp, 317 kb/s (default)
  205. Metadata:
  206. creation_time : 2021-05-28T06:21:22.000000Z
  207. handler_name : #Mainconcept MP4 Sound Media Handler
  208. Stream mapping:
  209. Stream #0:0 -> #0:0 (h264 (native) -> rawvideo (native))
  210. Press [q] to stop, [?] for help
  211. Output #0, image2pipe, to 'pipe:':
  212. Metadata:
  213. major_brand : mp42
  214. minor_version : 0
  215. compatible_brands: mp42mp41
  216. encoder : Lavf58.45.100
  217. Stream #0:0(eng): Video: rawvideo (RGB[24] / 0x18424752), rgb24, 4096x2160 [SAR 1:1 DAR 256:135], q=2-31, 6370099 kb/s, 30 fps, 30 tbn, 30 tbc (default)
  218. Metadata:
  219. creation_time : 2021-05-28T06:21:22.000000Z
  220. handler_name : ?Mainconcept Video Media Handler
  221.  
  222. ============ System Information ============
  223. encoding: cp1252
  224. git_branch: master
  225. git_commits: 8c87ac5 Update Travis Tests for optimizers
  226. gpu_cuda: No global version found. Check Conda packages for Conda Cuda
  227. gpu_cudnn: No global version found. Check Conda packages for Conda cuDNN
  228. gpu_devices: GPU_0: GeForce RTX 3070
  229. gpu_devices_active: GPU_0
  230. gpu_driver: 461.72
  231. gpu_vram: GPU_0: 8192MB
  232. os_machine: AMD64
  233. os_platform: Windows-10-10.0.19042-SP0
  234. os_release: 10
  235. py_command: C:\Users\User\faceswap\faceswap.py extract -i E:/DEEPFAKE/input/Sequence 01.mp4 -o E:/DEEPFAKE/output -D s3fd -A fan -nm hist -rf 0 -min 40 -l 0.4 -sz 512 -een 1 -si 0 -L INFO -gui
  236. py_conda_version: conda 4.10.1
  237. py_implementation: CPython
  238. py_version: 3.8.10
  239. py_virtual_env: True
  240. sys_cores: 16
  241. sys_processor: AMD64 Family 25 Model 33 Stepping 0, AuthenticAMD
  242. sys_ram: Total: 32714MB, Available: 21827MB, Used: 10886MB, Free: 21827MB
  243.  
  244. =============== Pip Packages ===============
  245. absl-py @ file:///C:/ci/absl-py_1615411229697/work
  246. aiohttp @ file:///C:/ci/aiohttp_1614361024229/work
  247. astunparse==1.6.3
  248. async-timeout==3.0.1
  249. attrs @ file:///tmp/build/80754af9/attrs_1620827162558/work
  250. blinker==1.4
  251. brotlipy==0.7.0
  252. cachetools @ file:///tmp/build/80754af9/cachetools_1619597386817/work
  253. certifi==2020.12.5
  254. cffi @ file:///C:/ci/cffi_1613247279197/work
  255. chardet @ file:///C:/ci/chardet_1605303225733/work
  256. click @ file:///tmp/build/80754af9/click_1621604852318/work
  257. coverage @ file:///C:/ci/coverage_1614615074147/work
  258. cryptography @ file:///C:/ci/cryptography_1616769344312/work
  259. cycler==0.10.0
  260. Cython @ file:///C:/ci/cython_1618435363327/work
  261. fastcluster==1.1.26
  262. ffmpy==0.2.3
  263. gast @ file:///tmp/build/80754af9/gast_1597433534803/work
  264. google-auth @ file:///tmp/build/80754af9/google-auth_1622042963536/work
  265. google-auth-oauthlib @ file:///tmp/build/80754af9/google-auth-oauthlib_1617120569401/work
  266. google-pasta==0.2.0
  267. grpcio @ file:///C:/ci/grpcio_1614884412260/work
  268. h5py==2.10.0
  269. idna @ file:///home/linux1/recipes/ci/idna_1610986105248/work
  270. imageio @ file:///tmp/build/80754af9/imageio_1617700267927/work
  271. imageio-ffmpeg @ file:///home/conda/feedstock_root/build_artifacts/imageio-ffmpeg_1621542018480/work
  272. importlib-metadata @ file:///C:/ci/importlib-metadata_1617877484576/work
  273. joblib @ file:///tmp/build/80754af9/joblib_1613502643832/work
  274. Keras-Applications @ file:///tmp/build/80754af9/keras-applications_1594366238411/work
  275. Keras-Preprocessing @ file:///tmp/build/80754af9/keras-preprocessing_1612283640596/work
  276. kiwisolver @ file:///C:/ci/kiwisolver_1612282606037/work
  277. Markdown @ file:///C:/ci/markdown_1614364121613/work
  278. matplotlib @ file:///C:/ci/matplotlib-base_1592837548929/work
  279. mkl-fft==1.3.0
  280. mkl-random==1.1.1
  281. mkl-service==2.3.0
  282. multidict @ file:///C:/ci/multidict_1607362065515/work
  283. numpy @ file:///C:/ci/numpy_and_numpy_base_1603466732592/work
  284. nvidia-ml-py3 @ git+https://github.com/deepfakes/nvidia-ml-py3.git@6fc29ac84b32bad877f078cb4a777c1548a00bf6
  285. oauthlib==3.1.0
  286. olefile==0.46
  287. opencv-python==4.5.2.52
  288. opt-einsum @ file:///tmp/build/80754af9/opt_einsum_1621500238896/work
  289. pathlib==1.0.1
  290. Pillow @ file:///C:/ci/pillow_1617386341487/work
  291. protobuf==3.14.0
  292. psutil @ file:///C:/ci/psutil_1612298324802/work
  293. pyasn1==0.4.8
  294. pyasn1-modules==0.2.8
  295. pycparser @ file:///tmp/build/80754af9/pycparser_1594388511720/work
  296. PyJWT==1.7.1
  297. pyOpenSSL @ file:///tmp/build/80754af9/pyopenssl_1608057966937/work
  298. pyparsing @ file:///home/linux1/recipes/ci/pyparsing_1610983426697/work
  299. pyreadline==2.1
  300. PySocks @ file:///C:/ci/pysocks_1605287845585/work
  301. python-dateutil @ file:///home/ktietz/src/ci/python-dateutil_1611928101742/work
  302. pywin32==227
  303. requests @ file:///tmp/build/80754af9/requests_1608241421344/work
  304. requests-oauthlib==1.3.0
  305. rsa @ file:///tmp/build/80754af9/rsa_1614366226499/work
  306. scikit-learn @ file:///C:/ci/scikit-learn_1621370563523/work
  307. scipy @ file:///C:/ci/scipy_1616703433439/work
  308. sip==4.19.13
  309. six @ file:///C:/ci/six_1605187374963/work
  310. tensorboard @ file:///home/builder/ktietz/aggregate/tensorflow_recipes/ci_te/tensorboard_1614593728657/work/tmp_pip_dir
  311. tensorboard-plugin-wit==1.6.0
  312. tensorflow==2.3.0
  313. tensorflow-estimator @ file:///tmp/build/80754af9/tensorflow-estimator_1599136169057/work/whl_temp/tensorflow_estimator-2.3.0-py2.py3-none-any.whl
  314. termcolor==1.1.0
  315. threadpoolctl @ file:///tmp/tmp9twdgx9k/threadpoolctl-2.1.0-py3-none-any.whl
  316. tornado @ file:///C:/ci/tornado_1606942392901/work
  317. tqdm @ file:///tmp/build/80754af9/tqdm_1615925068909/work
  318. typing-extensions @ file:///tmp/build/80754af9/typing_extensions_1611751222202/work
  319. urllib3 @ file:///tmp/build/80754af9/urllib3_1615837158687/work
  320. Werkzeug @ file:///home/ktietz/src/ci/werkzeug_1611932622770/work
  321. win-inet-pton @ file:///C:/ci/win_inet_pton_1605306167264/work
  322. wincertstore==0.2
  323. wrapt==1.12.1
  324. yarl @ file:///C:/ci/yarl_1606940076464/work
  325. zipp @ file:///tmp/build/80754af9/zipp_1615904174917/work
  326.  
  327. ============== Conda Packages ==============
  328. # packages in environment at C:\Users\User\MiniConda3\envs\faceswap:
  329. #
  330. # Name Version Build Channel
  331. _tflow_select 2.3.0 gpu
  332. absl-py 0.12.0 py38haa95532_0
  333. aiohttp 3.7.4 py38h2bbff1b_1
  334. astunparse 1.6.3 py_0
  335. async-timeout 3.0.1 py38haa95532_0
  336. attrs 21.2.0 pyhd3eb1b0_0
  337. blas 1.0 mkl
  338. blinker 1.4 py38haa95532_0
  339. brotlipy 0.7.0 py38h2bbff1b_1003
  340. ca-certificates 2021.4.13 haa95532_1
  341. cachetools 4.2.2 pyhd3eb1b0_0
  342. certifi 2020.12.5 py38haa95532_0
  343. cffi 1.14.5 py38hcd4344a_0
  344. chardet 3.0.4 py38haa95532_1003
  345. click 8.0.1 pyhd3eb1b0_0
  346. coverage 5.5 py38h2bbff1b_2
  347. cryptography 3.4.7 py38h71e12ea_0
  348. cudatoolkit 10.1.243 h74a9793_0
  349. cudnn 7.6.5 cuda10.1_0
  350. cycler 0.10.0 py38_0
  351. cython 0.29.23 py38hd77b12b_0
  352. fastcluster 1.1.26 py38h251f6bf_2 conda-forge
  353. ffmpeg 4.3.1 ha925a31_0 conda-forge
  354. ffmpy 0.2.3 pypi_0 pypi
  355. freetype 2.10.4 hd328e21_0
  356. gast 0.4.0 py_0
  357. git 2.23.0 h6bb4b03_0
  358. google-auth 1.30.1 pyhd3eb1b0_0
  359. google-auth-oauthlib 0.4.4 pyhd3eb1b0_0
  360. google-pasta 0.2.0 py_0
  361. grpcio 1.36.1 py38hc60d5dd_1
  362. h5py 2.10.0 py38h5e291fa_0
  363. hdf5 1.10.4 h7ebc959_0
  364. icc_rt 2019.0.0 h0cc432a_1
  365. icu 58.2 ha925a31_3
  366. idna 2.10 pyhd3eb1b0_0
  367. imageio 2.9.0 pyhd3eb1b0_0
  368. imageio-ffmpeg 0.4.4 pyhd8ed1ab_0 conda-forge
  369. importlib-metadata 3.10.0 py38haa95532_0
  370. intel-openmp 2021.2.0 haa95532_616
  371. joblib 1.0.1 pyhd3eb1b0_0
  372. jpeg 9b hb83a4c4_2
  373. keras-applications 1.0.8 py_1
  374. keras-preprocessing 1.1.2 pyhd3eb1b0_0
  375. kiwisolver 1.3.1 py38hd77b12b_0
  376. libpng 1.6.37 h2a8f88b_0
  377. libprotobuf 3.14.0 h23ce68f_0
  378. libtiff 4.2.0 hd0e1b90_0
  379. lz4-c 1.9.3 h2bbff1b_0
  380. markdown 3.3.4 py38haa95532_0
  381. matplotlib 3.2.2 0
  382. matplotlib-base 3.2.2 py38h64f37c6_0
  383. mkl 2020.2 256
  384. mkl-service 2.3.0 py38h196d8e1_0
  385. mkl_fft 1.3.0 py38h46781fe_0
  386. mkl_random 1.1.1 py38h47e9c7a_0
  387. multidict 5.1.0 py38h2bbff1b_2
  388. numpy 1.19.2 py38hadc3359_0
  389. numpy-base 1.19.2 py38ha3acd2a_0
  390. nvidia-ml-py3 7.352.1 pypi_0 pypi
  391. oauthlib 3.1.0 py_0
  392. olefile 0.46 py_0
  393. opencv-python 4.5.2.52 pypi_0 pypi
  394. openssl 1.1.1k h2bbff1b_0
  395. opt_einsum 3.3.0 pyhd3eb1b0_1
  396. pathlib 1.0.1 py_1
  397. pillow 8.2.0 py38h4fa10fc_0
  398. pip 21.1.1 py38haa95532_0
  399. protobuf 3.14.0 py38hd77b12b_1
  400. psutil 5.8.0 py38h2bbff1b_1
  401. pyasn1 0.4.8 py_0
  402. pyasn1-modules 0.2.8 py_0
  403. pycparser 2.20 py_2
  404. pyjwt 1.7.1 py38_0
  405. pyopenssl 20.0.1 pyhd3eb1b0_1
  406. pyparsing 2.4.7 pyhd3eb1b0_0
  407. pyqt 5.9.2 py38ha925a31_4
  408. pyreadline 2.1 py38_1
  409. pysocks 1.7.1 py38haa95532_0
  410. python 3.8.10 hdbf39b2_7
  411. python-dateutil 2.8.1 pyhd3eb1b0_0
  412. python_abi 3.8 1_cp38 conda-forge
  413. pywin32 227 py38he774522_1
  414. qt 5.9.7 vc14h73c81de_0
  415. requests 2.25.1 pyhd3eb1b0_0
  416. requests-oauthlib 1.3.0 py_0
  417. rsa 4.7.2 pyhd3eb1b0_1
  418. scikit-learn 0.24.2 py38hf11a4ad_0
  419. scipy 1.6.2 py38h14eb087_0
  420. setuptools 52.0.0 py38haa95532_0
  421. sip 4.19.13 py38ha925a31_0
  422. six 1.15.0 py38haa95532_0
  423. sqlite 3.35.4 h2bbff1b_0
  424. tensorboard 2.4.0 pyhc547734_0
  425. tensorboard-plugin-wit 1.6.0 py_0
  426. tensorflow 2.3.0 mkl_py38h1fcfbd6_0
  427. tensorflow-base 2.3.0 gpu_py38h7339f5a_0
  428. tensorflow-estimator 2.3.0 pyheb71bc4_0
  429. tensorflow-gpu 2.3.0 he13fc11_0
  430. termcolor 1.1.0 py38haa95532_1
  431. threadpoolctl 2.1.0 pyh5ca1d4c_0
  432. tk 8.6.10 he774522_0
  433. tornado 6.1 py38h2bbff1b_0
  434. tqdm 4.59.0 pyhd3eb1b0_1
  435. typing-extensions 3.7.4.3 hd3eb1b0_0
  436. typing_extensions 3.7.4.3 pyh06a4308_0
  437. urllib3 1.26.4 pyhd3eb1b0_0
  438. vc 14.2 h21ff451_1
  439. vs2015_runtime 14.27.29016 h5e58377_2
  440. werkzeug 1.0.1 pyhd3eb1b0_0
  441. wheel 0.36.2 pyhd3eb1b0_0
  442. win_inet_pton 1.1.0 py38haa95532_0
  443. wincertstore 0.2 py38_0
  444. wrapt 1.12.1 py38he774522_1
  445. xz 5.2.5 h62dcd97_0
  446. yarl 1.6.3 py38h2bbff1b_0
  447. zipp 3.4.1 pyhd3eb1b0_0
  448. zlib 1.2.11 h62dcd97_4
  449. zstd 1.4.5 h04227a9_0
  450.  
  451. ================= Configs ==================
  452. --------- .faceswap ---------
  453. backend: nvidia
  454.  
  455. --------- convert.ini ---------
  456.  
  457. [color.color_transfer]
  458. clip: True
  459. preserve_paper: True
  460.  
  461. [color.manual_balance]
  462. colorspace: HSV
  463. balance_1: 0.0
  464. balance_2: 0.0
  465. balance_3: 0.0
  466. contrast: 0.0
  467. brightness: 0.0
  468.  
  469. [color.match_hist]
  470. threshold: 99.0
  471.  
  472. [mask.box_blend]
  473. type: gaussian
  474. distance: 11.0
  475. radius: 5.0
  476. passes: 1
  477.  
  478. [mask.mask_blend]
  479. type: normalized
  480. kernel_size: 3
  481. passes: 4
  482. threshold: 4
  483. erosion: 0.0
  484.  
  485. [scaling.sharpen]
  486. method: none
  487. amount: 150
  488. radius: 0.3
  489. threshold: 5.0
  490.  
  491. [writer.ffmpeg]
  492. container: mp4
  493. codec: libx264
  494. crf: 23
  495. preset: medium
  496. tune: none
  497. profile: auto
  498. level: auto
  499. skip_mux: False
  500.  
  501. [writer.gif]
  502. fps: 25
  503. loop: 0
  504. palettesize: 256
  505. subrectangles: False
  506.  
  507. [writer.opencv]
  508. format: png
  509. draw_transparent: False
  510. jpg_quality: 75
  511. png_compress_level: 3
  512.  
  513. [writer.pillow]
  514. format: png
  515. draw_transparent: False
  516. optimize: False
  517. gif_interlace: True
  518. jpg_quality: 75
  519. png_compress_level: 3
  520. tif_compression: tiff_deflate
  521.  
  522. --------- extract.ini ---------
  523.  
  524. [global]
  525. allow_growth: True
  526.  
  527. [align.fan]
  528. batch-size: 12
  529.  
  530. [detect.cv2_dnn]
  531. confidence: 50
  532.  
  533. [detect.mtcnn]
  534. minsize: 20
  535. scalefactor: 0.709
  536. batch-size: 8
  537. threshold_1: 0.6
  538. threshold_2: 0.7
  539. threshold_3: 0.7
  540.  
  541. [detect.s3fd]
  542. confidence: 70
  543. batch-size: 4
  544.  
  545. [mask.unet_dfl]
  546. batch-size: 8
  547.  
  548. [mask.vgg_clear]
  549. batch-size: 6
  550.  
  551. [mask.vgg_obstructed]
  552. batch-size: 2
  553.  
  554. --------- gui.ini ---------
  555.  
  556. [global]
  557. fullscreen: False
  558. tab: extract
  559. options_panel_width: 30
  560. console_panel_height: 20
  561. icon_size: 14
  562. font: default
  563. font_size: 9
  564. autosave_last_session: prompt
  565. timeout: 120
  566. auto_load_model_stats: True
  567.  
  568. --------- train.ini ---------
  569.  
  570. [global]
  571. centering: face
  572. coverage: 68.75
  573. icnr_init: False
  574. conv_aware_init: False
  575. optimizer: adam
  576. learning_rate: 5e-05
  577. epsilon_exponent: -7
  578. reflect_padding: False
  579. allow_growth: False
  580. mixed_precision: False
  581. nan_protection: True
  582. convert_batchsize: 16
  583.  
  584. [global.loss]
  585. loss_function: ssim
  586. mask_loss_function: mse
  587. l2_reg_term: 100
  588. eye_multiplier: 3
  589. mouth_multiplier: 2
  590. penalized_mask_loss: True
  591. mask_type: extended
  592. mask_blur_kernel: 3
  593. mask_threshold: 4
  594. learn_mask: False
  595.  
  596. [model.dfaker]
  597. output_size: 128
  598.  
  599. [model.dfl_h128]
  600. lowmem: False
  601.  
  602. [model.dfl_sae]
  603. input_size: 128
  604. clipnorm: True
  605. architecture: df
  606. autoencoder_dims: 0
  607. encoder_dims: 42
  608. decoder_dims: 21
  609. multiscale_decoder: False
  610.  
  611. [model.dlight]
  612. features: best
  613. details: good
  614. output_size: 256
  615.  
  616. [model.original]
  617. lowmem: False
  618.  
  619. [model.realface]
  620. input_size: 64
  621. output_size: 128
  622. dense_nodes: 1536
  623. complexity_encoder: 128
  624. complexity_decoder: 512
  625.  
  626. [model.unbalanced]
  627. input_size: 128
  628. lowmem: False
  629. clipnorm: True
  630. nodes: 1024
  631. complexity_encoder: 128
  632. complexity_decoder_a: 384
  633. complexity_decoder_b: 512
  634.  
  635. [model.villain]
  636. lowmem: False
  637.  
  638. [trainer.original]
  639. preview_images: 14
  640. zoom_amount: 5
  641. rotation_range: 10
  642. shift_range: 5
  643. flip_chance: 50
  644. color_lightness: 30
  645. color_ab: 8
  646. color_clahe_chance: 50
  647. color_clahe_max_size: 4
  648.  
RAW Paste Data