SHARE
TWEET

Untitled

a guest Jan 11th, 2017 98 Never
Not a member of Pastebin yet? Sign Up, it unlocks many cool features!
  1. ffmpeg version 2.8.10-0ubuntu0.16.04.1 Copyright (c) 2000-2016 the FFmpeg developers
  2.   built with gcc 5.4.0 (Ubuntu 5.4.0-6ubuntu1~16.04.4) 20160609
  3.   configuration: --prefix=/usr --extra-version=0ubuntu0.16.04.1 --build-suffix=-ffmpeg --toolchain=hardened --libdir=/usr/lib/x86_64-linux-gnu --incdir=/usr/include/x86_64-linux-gnu --cc=cc --cxx=g++ --enable-gpl --enable-shared --disable-stripping --disable-decoder=libopenjpeg --disable-decoder=libschroedinger --enable-avresample --enable-avisynth --enable-gnutls --enable-ladspa --enable-libass --enable-libbluray --enable-libbs2b --enable-libcaca --enable-libcdio --enable-libflite --enable-libfontconfig --enable-libfreetype --enable-libfribidi --enable-libgme --enable-libgsm --enable-libmodplug --enable-libmp3lame --enable-libopenjpeg --enable-libopus --enable-libpulse --enable-librtmp --enable-libschroedinger --enable-libshine --enable-libsnappy --enable-libsoxr --enable-libspeex --enable-libssh --enable-libtheora --enable-libtwolame --enable-libvorbis --enable-libvpx --enable-libwavpack --enable-libwebp --enable-libx265 --enable-libxvid --enable-libzvbi --enable-openal --enable-opengl --enable-x11grab --enable-libdc1394 --enable-libiec61883 --enable-libzmq --enable-frei0r --enable-libx264 --enable-libopencv
  4.   libavutil      54. 31.100 / 54. 31.100
  5.   libavcodec     56. 60.100 / 56. 60.100
  6.   libavformat    56. 40.101 / 56. 40.101
  7.   libavdevice    56.  4.100 / 56.  4.100
  8.   libavfilter     5. 40.101 /  5. 40.101
  9.   libavresample   2.  1.  0 /  2.  1.  0
  10.   libswscale      3.  1.101 /  3.  1.101
  11.   libswresample   1.  2.101 /  1.  2.101
  12.   libpostproc    53.  3.100 / 53.  3.100
  13. [mjpeg @ 0xcd8340] Changeing bps to 8
  14. Input #0, concat, from './pgcamflea/pgcamflea.ffmc':
  15.   Duration: N/A, start: 0.000000, bitrate: N/A
  16.     Stream #0:0: Video: mjpeg, yuvj420p(pc, bt470bg/unknown/unknown), 640x480 [SAR 1:1 DAR 4:3], 25 tbr, 25 tbn, 25 tbc
  17. No pixel format specified, yuvj420p for H.264 encoding chosen.
  18. Use -pix_fmt yuv420p for compatibility with outdated media players.
  19. [libx264 @ 0xcdb760] using SAR=1/1
  20. [libx264 @ 0xcdb760] using cpu capabilities: MMX2 SSE2Fast SSSE3 SSE4.2 AVX FMA3 AVX2 LZCNT BMI2
  21. [libx264 @ 0xcdb760] profile High, level 3.0
  22. [libx264 @ 0xcdb760] 264 - core 148 r2643 5c65704 - H.264/MPEG-4 AVC codec - Copyleft 2003-2015 - http://www.videolan.org/x264.html - options: cabac=1 ref=3 deblock=1:0:0 analyse=0x3:0x113 me=hex subme=7 psy=1 psy_rd=1.00:0.00 mixed_ref=1 me_range=16 chroma_me=1 trellis=1 8x8dct=1 cqm=0 deadzone=21,11 fast_pskip=1 chroma_qp_offset=-2 threads=12 lookahead_threads=2 sliced_threads=0 nr=0 decimate=1 interlaced=0 bluray_compat=0 constrained_intra=0 bframes=3 b_pyramid=2 b_adapt=1 b_bias=0 direct=1 weightb=1 open_gop=0 weightp=2 keyint=250 keyint_min=25 scenecut=40 intra_refresh=0 rc_lookahead=40 rc=crf mbtree=1 crf=23.0 qcomp=0.60 qpmin=0 qpmax=69 qpstep=4 ip_ratio=1.40 aq=1:1.00
  23. Output #0, mp4, to './pgcamflea.mp4':
  24.   Metadata:
  25.     encoder         : Lavf56.40.101
  26.     Stream #0:0: Video: h264 (libx264) ([33][0][0][0] / 0x0021), yuvj420p(pc), 640x480 [SAR 1:1 DAR 4:3], q=-1--1, 25 fps, 12800 tbn, 25 tbc
  27.     Metadata:
  28.       encoder         : Lavc56.60.100 libx264
  29. Stream mapping:
  30.   Stream #0:0 -> #0:0 (mjpeg (native) -> h264 (libx264))
  31. Press [q] to stop, [?] for help
  32. [mjpeg @ 0xcd75c0] Changeing bps to 8
  33. [mjpeg @ 0x12ea420] Changeing bps to 8
  34. [mjpeg @ 0xcd7160] Changeing bps to 8
  35. [mjpeg @ 0x12ea100] Changeing bps to 8
  36. Past duration 0.999992 too large
  37. [mjpeg @ 0x12ecb20] Changeing bps to 8
  38. Past duration 0.999992 too large
  39. [mjpeg @ 0x12ec0a0] Changeing bps to 8
  40. Past duration 0.999992 too large
  41. [mjpeg @ 0xcd75c0] Changeing bps to 8
  42. Past duration 0.999992 too large
  43. [mjpeg @ 0xcd7480] Changeing bps to 8
  44. Past duration 0.999992 too large
  45. [mjpeg @ 0xcd75c0] Changeing bps to 8
  46. Past duration 0.999992 too large
  47. [mjpeg @ 0xcd75c0] Changeing bps to 8
  48.     Last message repeated 1 times
  49. [mjpeg @ 0xcd7160] Changeing bps to 8
  50. [mjpeg @ 0xcd7620] Changeing bps to 8
  51. [mjpeg @ 0xd06180] Changeing bps to 8
  52. [mjpeg @ 0xcd7160] Changeing bps to 8
  53.     Last message repeated 1 times
  54. [mjpeg @ 0xd06180] Changeing bps to 8
  55. [mjpeg @ 0xcd7160] Changeing bps to 8
  56. [mjpeg @ 0xd06180] Changeing bps to 8
  57. [mjpeg @ 0xcd7160] Changeing bps to 8
  58. [mjpeg @ 0xd06180] Changeing bps to 8
  59. [mjpeg @ 0xcd7160] Changeing bps to 8
  60. [mjpeg @ 0xd06180] Changeing bps to 8
  61. [mjpeg @ 0xcd7160] Changeing bps to 8
  62. [mjpeg @ 0xd06180] Changeing bps to 8
  63. [mjpeg @ 0xcd7160] Changeing bps to 8
  64. [mjpeg @ 0xd06180] Changeing bps to 8
  65. [mjpeg @ 0xcd7160] Changeing bps to 8
  66. [mjpeg @ 0xd06180] Changeing bps to 8
  67. [mjpeg @ 0xcd7160] Changeing bps to 8
  68. [mjpeg @ 0xd06180] Changeing bps to 8
  69. [mjpeg @ 0xcd7160] Changeing bps to 8
  70. [mjpeg @ 0xd06180] Changeing bps to 8
  71. [mjpeg @ 0xcd7160] Changeing bps to 8
  72. [mjpeg @ 0xd06180] Changeing bps to 8
  73. [mjpeg @ 0xcd7160] Changeing bps to 8
  74. [mjpeg @ 0xd06180] Changeing bps to 8
  75. [mjpeg @ 0xcd7160] Changeing bps to 8
  76. [mjpeg @ 0xd06180] Changeing bps to 8
  77. [mjpeg @ 0xcd7160] Changeing bps to 8
  78. [mjpeg @ 0xd06180] Changeing bps to 8
  79. [mjpeg @ 0xcd7160] Changeing bps to 8
  80. [mjpeg @ 0xd06180] Changeing bps to 8
  81. [mjpeg @ 0xcd7160] Changeing bps to 8
  82. [mjpeg @ 0xd06180] Changeing bps to 8
  83. [mjpeg @ 0xcd7160] Changeing bps to 8
  84. [mjpeg @ 0xd06180] Changeing bps to 8
  85. [mjpeg @ 0xcd7160] Changeing bps to 8
  86. [mjpeg @ 0xd06180] Changeing bps to 8
  87. [mjpeg @ 0xcd7160] Changeing bps to 8
  88. [mjpeg @ 0xd06180] Changeing bps to 8
  89. [mjpeg @ 0xcd7160] Changeing bps to 8
  90. [mjpeg @ 0xd06180] Changeing bps to 8
  91. [mjpeg @ 0xcd7160] Changeing bps to 8
  92. [mjpeg @ 0xd06180] Changeing bps to 8
  93. [mjpeg @ 0xcd7160] Changeing bps to 8
  94. [mjpeg @ 0xd06180] Changeing bps to 8
  95. [mjpeg @ 0xcd7160] Changeing bps to 8
  96. [mjpeg @ 0xd06180] Changeing bps to 8
  97. [mjpeg @ 0xcd7160] Changeing bps to 8
  98. [mjpeg @ 0xd06180] Changeing bps to 8
  99. [mjpeg @ 0xcd7160] Changeing bps to 8
  100. [mjpeg @ 0xd06180] Changeing bps to 8
  101. [mjpeg @ 0xcd7160] Changeing bps to 8
  102. [mjpeg @ 0xd06180] Changeing bps to 8
  103. [mjpeg @ 0x12ecb20] Changeing bps to 8
  104.     Last message repeated 31 times
  105. [mjpeg @ 0xcd8340] Changeing bps to 8
  106. [mjpeg @ 0x12ecb20] Changeing bps to 8
  107.     Last message repeated 7 times
  108. [mjpeg @ 0xcd8340] Changeing bps to 8
  109. [mjpeg @ 0x12ecb20] Changeing bps to 8
  110.     Last message repeated 19 times
  111. frame=  109 fps=0.0 q=28.0 size=     569kB time=00:00:02.04 bitrate=2285.9kbits/s dup=0 drop=19    
  112. [mjpeg @ 0x12ecb20] Changeing bps to 8
  113.     Last message repeated 11 times
  114. [mjpeg @ 0xcd8340] Changeing bps to 8
  115. [mjpeg @ 0x12ecb20] Changeing bps to 8
  116.     Last message repeated 18 times
  117. [mjpeg @ 0xcd8340] Changeing bps to 8
  118. [mjpeg @ 0x12ecb20] Changeing bps to 8
  119.     Last message repeated 12 times
  120. [mjpeg @ 0xcd8340] Changeing bps to 8
  121. [mjpeg @ 0x12ecb20] Changeing bps to 8
  122.     Last message repeated 17 times
  123. [mjpeg @ 0xcd8340] Changeing bps to 8
  124. [mjpeg @ 0x12ecb20] Changeing bps to 8
  125.     Last message repeated 2 times
  126. [mjpeg @ 0xcd8340] Changeing bps to 8
  127.     Last message repeated 1 times
  128. [mjpeg @ 0x12ecb20] Changeing bps to 8
  129.     Last message repeated 16 times
  130. [mjpeg @ 0xcd8340] Changeing bps to 8
  131. [mjpeg @ 0x12ecb20] Changeing bps to 8
  132.     Last message repeated 17 times
  133. [mjpeg @ 0xcd8340] Changeing bps to 8
  134. [mjpeg @ 0x12ecb20] Changeing bps to 8
  135.     Last message repeated 2 times
  136. [mjpeg @ 0xcd8340] Changeing bps to 8
  137.     Last message repeated 1 times
  138. [mjpeg @ 0x12ecb20] Changeing bps to 8
  139.     Last message repeated 11 times
  140. frame=  213 fps=212 q=28.0 size=    1641kB time=00:00:06.20 bitrate=2168.3kbits/s dup=0 drop=40    
  141. [mjpeg @ 0x12ecb20] Changeing bps to 8
  142.     Last message repeated 4 times
  143. [mjpeg @ 0xcd8340] Changeing bps to 8
  144. [mjpeg @ 0x12ecb20] Changeing bps to 8
  145.     Last message repeated 17 times
  146. [mjpeg @ 0xcd8340] Changeing bps to 8
  147. [mjpeg @ 0x12ecb20] Changeing bps to 8
  148.     Last message repeated 2 times
  149. [mjpeg @ 0xcd8340] Changeing bps to 8
  150.     Last message repeated 1 times
  151. [mjpeg @ 0x12ecb20] Changeing bps to 8
  152.     Last message repeated 26 times
  153. [mjpeg @ 0xcd8340] Changeing bps to 8
  154. [mjpeg @ 0x12ecb20] Changeing bps to 8
  155.     Last message repeated 13 times
  156. [mjpeg @ 0xcd8340] Changeing bps to 8
  157. [mjpeg @ 0x12ecb20] Changeing bps to 8
  158.     Last message repeated 17 times
  159. [mjpeg @ 0xcd8340] Changeing bps to 8
  160. [mjpeg @ 0x12ecb20] Changeing bps to 8
  161.     Last message repeated 2 times
  162. [mjpeg @ 0xcd8340] Changeing bps to 8
  163.     Last message repeated 1 times
  164. [mjpeg @ 0x12ecb20] Changeing bps to 8
  165.     Last message repeated 16 times
  166. [mjpeg @ 0xcd8340] Changeing bps to 8
  167. [mjpeg @ 0x12ecb20] Changeing bps to 8
  168.     Last message repeated 1 times
  169. frame=  311 fps=206 q=28.0 size=    2700kB time=00:00:10.12 bitrate=2185.4kbits/s dup=0 drop=59    
  170. [mjpeg @ 0x12ecb20] Changeing bps to 8
  171.     Last message repeated 15 times
  172. [mjpeg @ 0xcd8340] Changeing bps to 8
  173. [mjpeg @ 0x12ecb20] Changeing bps to 8
  174.     Last message repeated 2 times
  175. [mjpeg @ 0xcd8340] Changeing bps to 8
  176.     Last message repeated 1 times
  177. [mjpeg @ 0x12ecb20] Changeing bps to 8
  178.     Last message repeated 16 times
  179. [mjpeg @ 0xcd8340] Changeing bps to 8
  180. [mjpeg @ 0x12ecb20] Changeing bps to 8
  181.     Last message repeated 17 times
  182. [mjpeg @ 0xcd8340] Changeing bps to 8
  183. [mjpeg @ 0x12ecb20] Changeing bps to 8
  184.     Last message repeated 2 times
  185. [mjpeg @ 0xcd8340] Changeing bps to 8
  186.     Last message repeated 1 times
  187. [mjpeg @ 0x12ecb20] Changeing bps to 8
  188.     Last message repeated 16 times
  189. [mjpeg @ 0xcd8340] Changeing bps to 8
  190. [mjpeg @ 0x12ecb20] Changeing bps to 8
  191.     Last message repeated 17 times
  192. [mjpeg @ 0xcd8340] Changeing bps to 8
  193. [mjpeg @ 0x12ecb20] Changeing bps to 8
  194.     Last message repeated 2 times
  195. [mjpeg @ 0xcd8340] Changeing bps to 8
  196.     Last message repeated 1 times
  197. [mjpeg @ 0x12ecb20] Changeing bps to 8
  198.     Last message repeated 15 times
  199. frame=  412 fps=205 q=28.0 size=    3761kB time=00:00:14.16 bitrate=2175.9kbits/s dup=0 drop=79    
  200. [mjpeg @ 0x12ecb20] Changeing bps to 8
  201. [mjpeg @ 0xcd8340] Changeing bps to 8
  202. [mjpeg @ 0x12ecb20] Changeing bps to 8
  203.     Last message repeated 14 times
  204. [mjpeg @ 0xcd8340] Changeing bps to 8
  205. [mjpeg @ 0x12ecb20] Changeing bps to 8
  206. [mjpeg @ 0xcd8340] Changeing bps to 8
  207.     Last message repeated 1 times
  208. [mjpeg @ 0x12ecb20] Changeing bps to 8
  209.     Last message repeated 2 times
  210. [mjpeg @ 0xcd8340] Changeing bps to 8
  211.     Last message repeated 6 times
  212. [mjpeg @ 0x12ecb20] Changeing bps to 8
  213. [mjpeg @ 0xcd8340] Changeing bps to 8
  214. [mjpeg @ 0x12ecb20] Changeing bps to 8
  215.     Last message repeated 1 times
  216. [mjpeg @ 0xcd8340] Changeing bps to 8
  217.     Last message repeated 3 times
  218. [mjpeg @ 0x12ecb20] Changeing bps to 8
  219.     Last message repeated 1 times
  220. [mjpeg @ 0xcd8340] Changeing bps to 8
  221.     Last message repeated 3 times
  222. [mjpeg @ 0x12ecb20] Changeing bps to 8
  223.     Last message repeated 1 times
  224. [mjpeg @ 0xcd8340] Changeing bps to 8
  225.     Last message repeated 3 times
  226. [mjpeg @ 0x12ecb20] Changeing bps to 8
  227.     Last message repeated 1 times
  228. [mjpeg @ 0xcd8340] Changeing bps to 8
  229.     Last message repeated 3 times
  230. [mjpeg @ 0x12ecb20] Changeing bps to 8
  231.     Last message repeated 1 times
  232. [mjpeg @ 0xcd8340] Changeing bps to 8
  233.     Last message repeated 3 times
  234. [mjpeg @ 0x12ecb20] Changeing bps to 8
  235.     Last message repeated 1 times
  236. [mjpeg @ 0xcd8340] Changeing bps to 8
  237.     Last message repeated 3 times
  238. [mjpeg @ 0x12ecb20] Changeing bps to 8
  239.     Last message repeated 1 times
  240. [mjpeg @ 0xcd8340] Changeing bps to 8
  241.     Last message repeated 3 times
  242. [mjpeg @ 0x12ecb20] Changeing bps to 8
  243.     Last message repeated 1 times
  244. [mjpeg @ 0xcd8340] Changeing bps to 8
  245.     Last message repeated 2 times
  246. [mjpeg @ 0x12ecb20] Changeing bps to 8
  247.     Last message repeated 4 times
  248. [mjpeg @ 0xcd8340] Changeing bps to 8
  249.     Last message repeated 3 times
  250. [mjpeg @ 0x12ecb20] Changeing bps to 8
  251. [mjpeg @ 0xcd8340] Changeing bps to 8
  252. [mjpeg @ 0x12ecb20] Changeing bps to 8
  253.     Last message repeated 1 times
  254. [mjpeg @ 0xcd8340] Changeing bps to 8
  255.     Last message repeated 3 times
  256. [mjpeg @ 0x12ecb20] Changeing bps to 8
  257.     Last message repeated 1 times
  258. [mjpeg @ 0xcd8340] Changeing bps to 8
  259.     Last message repeated 3 times
  260. [mjpeg @ 0x12ecb20] Changeing bps to 8
  261.     Last message repeated 1 times
  262. [mjpeg @ 0xcd8340] Changeing bps to 8
  263.     Last message repeated 3 times
  264. [mjpeg @ 0x12ecb20] Changeing bps to 8
  265.     Last message repeated 1 times
  266. [mjpeg @ 0xcd8340] Changeing bps to 8
  267.     Last message repeated 3 times
  268. [mjpeg @ 0x12ecb20] Changeing bps to 8
  269.     Last message repeated 1 times
  270. [mjpeg @ 0xcd8340] Changeing bps to 8
  271. frame=  511 fps=203 q=28.0 size=    4810kB time=00:00:18.12 bitrate=2174.4kbits/s dup=0 drop=99    
  272. [mjpeg @ 0xcd8340] Changeing bps to 8
  273.     Last message repeated 2 times
  274. [mjpeg @ 0x12ecb20] Changeing bps to 8
  275.     Last message repeated 1 times
  276. [mjpeg @ 0xcd8340] Changeing bps to 8
  277.     Last message repeated 3 times
  278. [mjpeg @ 0x12ecb20] Changeing bps to 8
  279.     Last message repeated 1 times
  280. [mjpeg @ 0xcd8340] Changeing bps to 8
  281.     Last message repeated 3 times
  282. [mjpeg @ 0x12ecb20] Changeing bps to 8
  283.     Last message repeated 1 times
  284. [mjpeg @ 0xcd8340] Changeing bps to 8
  285.     Last message repeated 3 times
  286. [mjpeg @ 0x12ecb20] Changeing bps to 8
  287.     Last message repeated 1 times
  288. [mjpeg @ 0xcd8340] Changeing bps to 8
  289.     Last message repeated 3 times
  290. [mjpeg @ 0x12ecb20] Changeing bps to 8
  291.     Last message repeated 1 times
  292. [mjpeg @ 0xcd8340] Changeing bps to 8
  293.     Last message repeated 3 times
  294. [mjpeg @ 0x12ecb20] Changeing bps to 8
  295.     Last message repeated 1 times
  296. [mjpeg @ 0xcd8340] Changeing bps to 8
  297.     Last message repeated 3 times
  298. [mjpeg @ 0x12ecb20] Changeing bps to 8
  299.     Last message repeated 1 times
  300. [mjpeg @ 0xcd8340] Changeing bps to 8
  301.     Last message repeated 3 times
  302. [mjpeg @ 0x12ecb20] Changeing bps to 8
  303.     Last message repeated 1 times
  304. [mjpeg @ 0xcd8340] Changeing bps to 8
  305.     Last message repeated 3 times
  306. [mjpeg @ 0x12ecb20] Changeing bps to 8
  307.     Last message repeated 1 times
  308. [mjpeg @ 0xcd8340] Changeing bps to 8
  309.     Last message repeated 3 times
  310. [mjpeg @ 0x12ecb20] Changeing bps to 8
  311.     Last message repeated 1 times
  312. [mjpeg @ 0xcd8340] Changeing bps to 8
  313.     Last message repeated 3 times
  314. [mjpeg @ 0x12ecb20] Changeing bps to 8
  315.     Last message repeated 1 times
  316. [mjpeg @ 0xcd8340] Changeing bps to 8
  317.     Last message repeated 3 times
  318. [mjpeg @ 0x12ecb20] Changeing bps to 8
  319.     Last message repeated 1 times
  320. [mjpeg @ 0xcd8340] Changeing bps to 8
  321.     Last message repeated 3 times
  322. [mjpeg @ 0x12ecb20] Changeing bps to 8
  323.     Last message repeated 1 times
  324. [mjpeg @ 0xcd8340] Changeing bps to 8
  325.     Last message repeated 3 times
  326. [mjpeg @ 0x12ecb20] Changeing bps to 8
  327.     Last message repeated 1 times
  328. [mjpeg @ 0xcd8340] Changeing bps to 8
  329.     Last message repeated 3 times
  330. [mjpeg @ 0x12ecb20] Changeing bps to 8
  331.     Last message repeated 1 times
  332. [mjpeg @ 0xcd8340] Changeing bps to 8
  333.     Last message repeated 3 times
  334. [mjpeg @ 0x12ecb20] Changeing bps to 8
  335.     Last message repeated 1 times
  336. [mjpeg @ 0xcd8340] Changeing bps to 8
  337.     Last message repeated 3 times
  338. [mjpeg @ 0x12ecb20] Changeing bps to 8
  339.     Last message repeated 1 times
  340. [mjpeg @ 0xcd8340] Changeing bps to 8
  341.     Last message repeated 3 times
  342. [mjpeg @ 0x12ecb20] Changeing bps to 8
  343.     Last message repeated 1 times
  344. [mjpeg @ 0xcd8340] Changeing bps to 8
  345.     Last message repeated 3 times
  346. [mjpeg @ 0x12ecb20] Changeing bps to 8
  347.     Last message repeated 1 times
  348. frame=  605 fps=201 q=28.0 size=    5843kB time=00:00:21.88 bitrate=2187.5kbits/s dup=0 drop=118    
  349. [mjpeg @ 0xcd8340] Changeing bps to 8
  350.     Last message repeated 3 times
  351. [mjpeg @ 0x12ecb20] Changeing bps to 8
  352.     Last message repeated 1 times
  353. [mjpeg @ 0xcd8340] Changeing bps to 8
  354.     Last message repeated 3 times
  355. [mjpeg @ 0x12ecb20] Changeing bps to 8
  356.     Last message repeated 1 times
  357. [mjpeg @ 0xcd8340] Changeing bps to 8
  358.     Last message repeated 3 times
  359. [mjpeg @ 0x12ecb20] Changeing bps to 8
  360.     Last message repeated 1 times
  361. [mjpeg @ 0xcd8340] Changeing bps to 8
  362.     Last message repeated 3 times
  363. [mjpeg @ 0x12ecb20] Changeing bps to 8
  364.     Last message repeated 1 times
  365. [mjpeg @ 0xcd8340] Changeing bps to 8
  366.     Last message repeated 3 times
  367. [mjpeg @ 0x12ecb20] Changeing bps to 8
  368.     Last message repeated 1 times
  369. [mjpeg @ 0xcd8340] Changeing bps to 8
  370.     Last message repeated 3 times
  371. [mjpeg @ 0x12ecb20] Changeing bps to 8
  372.     Last message repeated 1 times
  373. [mjpeg @ 0xcd8340] Changeing bps to 8
  374.     Last message repeated 3 times
  375. [mjpeg @ 0x12ecb20] Changeing bps to 8
  376.     Last message repeated 1 times
  377. [mjpeg @ 0xcd8340] Changeing bps to 8
  378.     Last message repeated 3 times
  379. [mjpeg @ 0x12ecb20] Changeing bps to 8
  380.     Last message repeated 1 times
  381. [mjpeg @ 0xcd8340] Changeing bps to 8
  382.     Last message repeated 3 times
  383. [mjpeg @ 0x12ecb20] Changeing bps to 8
  384.     Last message repeated 1 times
  385. [mjpeg @ 0xcd8340] Changeing bps to 8
  386.     Last message repeated 3 times
  387. [mjpeg @ 0x12ecb20] Changeing bps to 8
  388.     Last message repeated 1 times
  389. [mjpeg @ 0xcd8340] Changeing bps to 8
  390.     Last message repeated 3 times
  391. [mjpeg @ 0x12ecb20] Changeing bps to 8
  392.     Last message repeated 1 times
  393. [mjpeg @ 0xcd8340] Changeing bps to 8
  394.     Last message repeated 3 times
  395. [mjpeg @ 0x12ecb20] Changeing bps to 8
  396.     Last message repeated 1 times
  397. [mjpeg @ 0xcd8340] Changeing bps to 8
  398.     Last message repeated 3 times
  399. [mjpeg @ 0x12ecb20] Changeing bps to 8
  400.     Last message repeated 1 times
  401. [mjpeg @ 0xcd8340] Changeing bps to 8
  402.     Last message repeated 3 times
  403. [mjpeg @ 0x12ecb20] Changeing bps to 8
  404.     Last message repeated 1 times
  405. [mjpeg @ 0xcd8340] Changeing bps to 8
  406.     Last message repeated 3 times
  407. [mjpeg @ 0x12ecb20] Changeing bps to 8
  408.     Last message repeated 1 times
  409. [mjpeg @ 0xcd8340] Changeing bps to 8
  410.     Last message repeated 4 times
  411. [mjpeg @ 0x12ecb20] Changeing bps to 8
  412.     Last message repeated 1 times
  413. [mjpeg @ 0xcd8340] Changeing bps to 8
  414.     Last message repeated 1 times
  415. [mjpeg @ 0xcd7160] Changeing bps to 8
  416. [mjpeg @ 0x12ecb20] Changeing bps to 8
  417. [mjpeg @ 0xcd7160] Changeing bps to 8
  418. [mjpeg @ 0x12ecb20] Changeing bps to 8
  419. [mjpeg @ 0xcd7160] Changeing bps to 8
  420. [mjpeg @ 0x12ecb20] Changeing bps to 8
  421.     Last message repeated 1 times
  422. [mjpeg @ 0xcd7160] Changeing bps to 8
  423. [mjpeg @ 0x12ecb20] Changeing bps to 8
  424. [mjpeg @ 0xcd7160] Changeing bps to 8
  425. [mjpeg @ 0x12ecb20] Changeing bps to 8
  426. [mjpeg @ 0xcd7160] Changeing bps to 8
  427. [mjpeg @ 0x12ecb20] Changeing bps to 8
  428. [mjpeg @ 0xcd7160] Changeing bps to 8
  429. [mjpeg @ 0x12ecb20] Changeing bps to 8
  430. [mjpeg @ 0xcd7160] Changeing bps to 8
  431. [mjpeg @ 0xcd8340] Changeing bps to 8
  432. [mjpeg @ 0xcd7160] Changeing bps to 8
  433. [mjpeg @ 0x12ecb20] Changeing bps to 8
  434. frame=  703 fps=200 q=28.0 size=    6868kB time=00:00:25.80 bitrate=2180.6kbits/s dup=0 drop=137    
  435. [mjpeg @ 0xcd8340] Changeing bps to 8
  436.     Last message repeated 4 times
  437. [mjpeg @ 0x12ecb20] Changeing bps to 8
  438.     Last message repeated 108 times
  439. frame=  799 fps=199 q=28.0 size=    7890kB time=00:00:29.64 bitrate=2180.8kbits/s dup=0 drop=156    
  440. [mjpeg @ 0x12ecb20] Changeing bps to 8
  441.     Last message repeated 118 times
  442. frame=  898 fps=199 q=28.0 size=    8968kB time=00:00:33.60 bitrate=2186.5kbits/s dup=0 drop=176    
  443. [mjpeg @ 0x12ecb20] Changeing bps to 8
  444.     Last message repeated 116 times
  445. frame=  995 fps=198 q=28.0 size=    9994kB time=00:00:37.48 bitrate=2184.4kbits/s dup=0 drop=195    
  446. [mjpeg @ 0x12ecb20] Changeing bps to 8
  447.     Last message repeated 120 times
  448. frame= 1096 fps=198 q=28.0 size=   11087kB time=00:00:41.52 bitrate=2187.4kbits/s dup=0 drop=216    
  449. [mjpeg @ 0x12ecb20] Changeing bps to 8
  450.     Last message repeated 58 times
  451. [mjpeg @ 0x14e2cc0] Changeing bps to 8
  452.     Last message repeated 2 times
  453. [mjpeg @ 0x12ecb20] Changeing bps to 8
  454.     Last message repeated 1 times
  455. [mjpeg @ 0x14e2cc0] Changeing bps to 8
  456.     Last message repeated 1 times
  457. [mjpeg @ 0x12ecb20] Changeing bps to 8
  458.     Last message repeated 1 times
  459. [mjpeg @ 0x14e2cc0] Changeing bps to 8
  460.     Last message repeated 1 times
  461. [mjpeg @ 0x12ecb20] Changeing bps to 8
  462.     Last message repeated 1 times
  463. [mjpeg @ 0x14e2cc0] Changeing bps to 8
  464.     Last message repeated 1 times
  465. [mjpeg @ 0x12ecb20] Changeing bps to 8
  466.     Last message repeated 1 times
  467. [mjpeg @ 0x14e2cc0] Changeing bps to 8
  468.     Last message repeated 1 times
  469. [mjpeg @ 0x12ecb20] Changeing bps to 8
  470.     Last message repeated 26 times
  471. frame= 1184 fps=196 q=28.0 size=   12027kB time=00:00:45.04 bitrate=2187.4kbits/s dup=0 drop=233    
  472. [mjpeg @ 0x12ecb20] Changeing bps to 8
  473.     Last message repeated 72 times
  474. frame= 1245 fps=191 q=28.0 size=   13681kB time=00:00:47.48 bitrate=2360.4kbits/s dup=0 drop=245    
  475. [mjpeg @ 0x12ecb20] Changeing bps to 8
  476.     Last message repeated 76 times
  477. frame= 1309 fps=186 q=28.0 size=   15121kB time=00:00:50.04 bitrate=2475.5kbits/s dup=0 drop=258    
  478. [mjpeg @ 0x12ecb20] Changeing bps to 8
  479.     Last message repeated 68 times
  480. frame= 1366 fps=181 q=28.0 size=   16800kB time=00:00:52.32 bitrate=2630.5kbits/s dup=0 drop=269    
  481. [mjpeg @ 0x12ecb20] Changeing bps to 8
  482.     Last message repeated 59 times
  483. frame= 1416 fps=176 q=28.0 size=   18472kB time=00:00:54.32 bitrate=2785.7kbits/s dup=0 drop=279    
  484. [mjpeg @ 0x12ecb20] Changeing bps to 8
  485.     Last message repeated 61 times
  486. frame= 1468 fps=172 q=28.0 size=   20304kB time=00:00:56.40 bitrate=2949.2kbits/s dup=0 drop=290    
  487. [mjpeg @ 0x12ecb20] Changeing bps to 8
  488.     Last message repeated 68 times
  489. frame= 1526 fps=169 q=28.0 size=   22162kB time=00:00:58.72 bitrate=3091.8kbits/s dup=0 drop=301    
  490. [mjpeg @ 0x12ecb20] Changeing bps to 8
  491.     Last message repeated 97 times
  492. frame= 1607 fps=168 q=28.0 size=   23540kB time=00:01:01.96 bitrate=3112.3kbits/s dup=0 drop=317    
  493. [mjpeg @ 0x12ecb20] Changeing bps to 8
  494.     Last message repeated 169 times
  495. frame= 1749 fps=174 q=28.0 size=   24292kB time=00:01:07.64 bitrate=2942.0kbits/s dup=0 drop=346    
  496. [mjpeg @ 0x12ecb20] Changeing bps to 8
  497.     Last message repeated 38 times
  498. [mjpeg @ 0x1554040] Changeing bps to 8
  499.     Last message repeated 1 times
  500. [mjpeg @ 0x12ecb20] Changeing bps to 8
  501.     Last message repeated 297 times
  502. frame= 2032 fps=192 q=28.0 size=   24548kB time=00:01:18.96 bitrate=2546.9kbits/s dup=0 drop=402    
  503. [mjpeg @ 0x12ecb20] Changeing bps to 8
  504.     Last message repeated 340 times
  505. frame= 2316 fps=209 q=28.0 size=   24805kB time=00:01:30.32 bitrate=2249.8kbits/s dup=0 drop=459    
  506. [mjpeg @ 0x12ecb20] Changeing bps to 8
  507.     Last message repeated 341 times
  508. frame= 2601 fps=225 q=28.0 size=   25065kB time=00:01:41.72 bitrate=2018.6kbits/s dup=0 drop=515    
  509. [mjpeg @ 0x12ecb20] Changeing bps to 8
  510.     Last message repeated 332 times
  511. frame= 2879 fps=239 q=28.0 size=   25320kB time=00:01:52.84 bitrate=1838.2kbits/s dup=0 drop=571    
  512. [mjpeg @ 0x12ecb20] Changeing bps to 8
  513.     Last message repeated 8 times
  514. Past duration 0.999992 too large
  515. [mjpeg @ 0x12ecb20] Changeing bps to 8
  516.     Last message repeated 328 times
  517. frame= 3162 fps=252 q=28.0 size=   25583kB time=00:02:04.16 bitrate=1687.9kbits/s dup=0 drop=626    
  518. [mjpeg @ 0x12ecb20] Changeing bps to 8
  519.     Last message repeated 332 times
  520. frame= 3440 fps=263 q=28.0 size=   25842kB time=00:02:15.28 bitrate=1564.9kbits/s dup=0 drop=681    
  521. [mjpeg @ 0x12ecb20] Changeing bps to 8
  522.     Last message repeated 289 times
  523. frame= 3681 fps=271 q=28.0 size=   26066kB time=00:02:24.92 bitrate=1473.5kbits/s dup=0 drop=729    
  524. [mjpeg @ 0x12ecb20] Changeing bps to 8
  525.     Last message repeated 38 times
  526. [mjpeg @ 0x1554040] Changeing bps to 8
  527. [mjpeg @ 0x12ecb20] Changeing bps to 8
  528. [mjpeg @ 0x1554040] Changeing bps to 8
  529. [mjpeg @ 0x12ecb20] Changeing bps to 8
  530. [mjpeg @ 0x1554040] Changeing bps to 8
  531. [mjpeg @ 0x12ecb20] Changeing bps to 8
  532. [mjpeg @ 0x1554040] Changeing bps to 8
  533. [mjpeg @ 0x12ecb20] Changeing bps to 8
  534.     Last message repeated 1 times
  535. [mjpeg @ 0x1554040] Changeing bps to 8
  536. [mjpeg @ 0x12ecb20] Changeing bps to 8
  537. [mjpeg @ 0x1554040] Changeing bps to 8
  538. [mjpeg @ 0x12ecb20] Changeing bps to 8
  539. [mjpeg @ 0x1554040] Changeing bps to 8
  540. [mjpeg @ 0x12ecb20] Changeing bps to 8
  541. [mjpeg @ 0x1554040] Changeing bps to 8
  542. [mjpeg @ 0x12ecb20] Changeing bps to 8
  543. [mjpeg @ 0x1554040] Changeing bps to 8
  544. [mjpeg @ 0x12ecb20] Changeing bps to 8
  545.     Last message repeated 4 times
  546. [mjpeg @ 0x1554040] Changeing bps to 8
  547. [mjpeg @ 0x12ecb20] Changeing bps to 8
  548. [mjpeg @ 0x1554040] Changeing bps to 8
  549. [mjpeg @ 0x12ecb20] Changeing bps to 8
  550.     Last message repeated 6 times
  551. [mjpeg @ 0x1554040] Changeing bps to 8
  552. [mjpeg @ 0x12ecb20] Changeing bps to 8
  553.     Last message repeated 1 times
  554. [mjpeg @ 0x1554040] Changeing bps to 8
  555. [mjpeg @ 0x12ecb20] Changeing bps to 8
  556.     Last message repeated 31 times
  557. [mjpeg @ 0x1554040] Changeing bps to 8
  558. [mjpeg @ 0x12ecb20] Changeing bps to 8
  559.     Last message repeated 2 times
  560. [mjpeg @ 0x1554040] Changeing bps to 8
  561. frame= 3776 fps=269 q=28.0 size=   27334kB time=00:02:28.72 bitrate=1505.7kbits/s dup=0 drop=748    
  562. [mjpeg @ 0x12ecb20] Changeing bps to 8
  563. [mjpeg @ 0x1554040] Changeing bps to 8
  564. [mjpeg @ 0x12ecb20] Changeing bps to 8
  565.     Last message repeated 4 times
  566. [mjpeg @ 0x1554040] Changeing bps to 8
  567. [mjpeg @ 0x12ecb20] Changeing bps to 8
  568.     Last message repeated 215 times
  569. [mjpeg @ 0x1554040] Changeing bps to 8
  570. [mjpeg @ 0x12ecb20] Changeing bps to 8
  571.     Last message repeated 16 times
  572. frame= 3977 fps=273 q=28.0 size=   27764kB time=00:02:36.76 bitrate=1450.9kbits/s dup=0 drop=788    
  573. [mjpeg @ 0x12ecb20] Changeing bps to 8
  574.     Last message repeated 29 times
  575. [mjpeg @ 0x1554040] Changeing bps to 8
  576. [mjpeg @ 0x12ecb20] Changeing bps to 8
  577.     Last message repeated 1 times
  578. [mjpeg @ 0x1554040] Changeing bps to 8
  579. [mjpeg @ 0x12ecb20] Changeing bps to 8
  580. [mjpeg @ 0x1554040] Changeing bps to 8
  581. [mjpeg @ 0x12ecb20] Changeing bps to 8
  582. [mjpeg @ 0x1554040] Changeing bps to 8
  583. [mjpeg @ 0x12ecb20] Changeing bps to 8
  584. [mjpeg @ 0x1554040] Changeing bps to 8
  585. [mjpeg @ 0x12ecb20] Changeing bps to 8
  586. [mjpeg @ 0x1554040] Changeing bps to 8
  587. [mjpeg @ 0x12ecb20] Changeing bps to 8
  588.     Last message repeated 36 times
  589. [mjpeg @ 0x1554040] Changeing bps to 8
  590. [mjpeg @ 0x12ecb20] Changeing bps to 8
  591.     Last message repeated 3 times
  592. [mjpeg @ 0x1554040] Changeing bps to 8
  593. [mjpeg @ 0x12ecb20] Changeing bps to 8
  594. [mjpeg @ 0x1554040] Changeing bps to 8
  595. [mjpeg @ 0x12ecb20] Changeing bps to 8
  596. [mjpeg @ 0x1554040] Changeing bps to 8
  597. [mjpeg @ 0x12ecb20] Changeing bps to 8
  598.     Last message repeated 7 times
  599. [mjpeg @ 0x1554040] Changeing bps to 8
  600. [mjpeg @ 0x12ecb20] Changeing bps to 8
  601.     Last message repeated 4 times
  602. [mjpeg @ 0x1554040] Changeing bps to 8
  603. [mjpeg @ 0x12ecb20] Changeing bps to 8
  604.     Last message repeated 4 times
  605. frame= 4068 fps=270 q=28.0 size=   28902kB time=00:02:40.40 bitrate=1476.1kbits/s dup=0 drop=806    
  606. [mjpeg @ 0x12ecb20] Changeing bps to 8
  607.     Last message repeated 23 times
  608. [mjpeg @ 0x1554040] Changeing bps to 8
  609. [mjpeg @ 0x12ecb20] Changeing bps to 8
  610.     Last message repeated 56 times
  611. frame= 4137 fps=266 q=28.0 size=   30442kB time=00:02:43.16 bitrate=1528.4kbits/s dup=0 drop=820    
  612. [mjpeg @ 0x12ecb20] Changeing bps to 8
  613.     Last message repeated 78 times
  614. frame= 4203 fps=261 q=28.0 size=   32126kB time=00:02:45.80 bitrate=1587.3kbits/s dup=0 drop=833    
  615. [mjpeg @ 0x12ecb20] Changeing bps to 8
  616.     Last message repeated 161 times
  617. frame= 4338 fps=262 q=28.0 size=   33065kB time=00:02:51.20 bitrate=1582.2kbits/s dup=0 drop=860    
  618. [mjpeg @ 0x12ecb20] Changeing bps to 8
  619.     Last message repeated 78 times
  620. frame= 4404 fps=258 q=28.0 size=   34140kB time=00:02:53.84 bitrate=1608.8kbits/s dup=0 drop=873    
  621. [mjpeg @ 0x12ecb20] Changeing bps to 8
  622.     Last message repeated 81 times
  623. frame= 4472 fps=254 q=28.0 size=   35681kB time=00:02:56.56 bitrate=1655.5kbits/s dup=0 drop=887    
  624. [mjpeg @ 0x12ecb20] Changeing bps to 8
  625.     Last message repeated 120 times
  626. frame= 4573 fps=253 q=28.0 size=   36450kB time=00:03:00.60 bitrate=1653.4kbits/s dup=0 drop=907    
  627. [mjpeg @ 0x12ecb20] Changeing bps to 8
  628.     Last message repeated 117 times
  629. frame= 4671 fps=251 q=28.0 size=   37345kB time=00:03:04.52 bitrate=1658.0kbits/s dup=0 drop=927    
  630. [mjpeg @ 0x12ecb20] Changeing bps to 8
  631.     Last message repeated 86 times
  632. frame= 4744 fps=248 q=28.0 size=   38438kB time=00:03:07.44 bitrate=1679.9kbits/s dup=0 drop=941    
  633. [mjpeg @ 0x12ecb20] Changeing bps to 8
  634.     Last message repeated 91 times
  635. frame= 4821 fps=246 q=28.0 size=   39411kB time=00:03:10.52 bitrate=1694.6kbits/s dup=0 drop=956    
  636. [mjpeg @ 0x12ecb20] Changeing bps to 8
  637.     Last message repeated 94 times
  638. frame= 4900 fps=244 q=28.0 size=   40656kB time=00:03:13.68 bitrate=1719.6kbits/s dup=0 drop=972    
  639. [mjpeg @ 0x12ecb20] Changeing bps to 8
  640.     Last message repeated 94 times
  641. frame= 4979 fps=242 q=28.0 size=   41918kB time=00:03:16.84 bitrate=1744.5kbits/s dup=0 drop=988    
  642. [mjpeg @ 0x12ecb20] Changeing bps to 8
  643.     Last message repeated 91 times
  644. frame= 5056 fps=239 q=28.0 size=   42888kB time=00:03:19.92 bitrate=1757.4kbits/s dup=0 drop=1003    
  645. [mjpeg @ 0x12ecb20] Changeing bps to 8
  646.     Last message repeated 108 times
  647. frame= 5147 fps=238 q=28.0 size=   43398kB time=00:03:23.56 bitrate=1746.5kbits/s dup=0 drop=1021    
  648. [mjpeg @ 0x12ecb20] Changeing bps to 8
  649.     Last message repeated 98 times
  650. frame= 5229 fps=236 q=28.0 size=   44214kB time=00:03:26.84 bitrate=1751.1kbits/s dup=0 drop=1038    
  651. [mjpeg @ 0x12ecb20] Changeing bps to 8
  652.     Last message repeated 88 times
  653. frame= 5303 fps=234 q=28.0 size=   44971kB time=00:03:29.80 bitrate=1756.0kbits/s dup=0 drop=1052    
  654. [mjpeg @ 0x12ecb20] Changeing bps to 8
  655.     Last message repeated 79 times
  656. frame= 5370 fps=232 q=28.0 size=   46080kB time=00:03:32.48 bitrate=1776.6kbits/s dup=0 drop=1066    
  657. [mjpeg @ 0x12ecb20] Changeing bps to 8
  658.     Last message repeated 92 times
  659. frame= 5448 fps=231 q=28.0 size=   47427kB time=00:03:35.60 bitrate=1802.1kbits/s dup=0 drop=1081    
  660. [mjpeg @ 0x12ecb20] Changeing bps to 8
  661.     Last message repeated 97 times
  662. frame= 5529 fps=229 q=28.0 size=   48464kB time=00:03:38.84 bitrate=1814.2kbits/s dup=0 drop=1097    
  663. [mjpeg @ 0x12ecb20] Changeing bps to 8
  664.     Last message repeated 88 times
  665. frame= 5604 fps=228 q=28.0 size=   49817kB time=00:03:41.84 bitrate=1839.6kbits/s dup=0 drop=1112    
  666. [mjpeg @ 0x12ecb20] Changeing bps to 8
  667.     Last message repeated 93 times
  668. frame= 5682 fps=226 q=-1.0 Lsize=   50619kB time=00:03:47.20 bitrate=1825.1kbits/s dup=0 drop=1128    
  669. video:50566kB audio:0kB subtitle:0kB other streams:0kB global headers:0kB muxing overhead: 0.106222%
  670. [libx264 @ 0xcdb760] frame I:80    Avg QP:20.89  size: 20362
  671. [libx264 @ 0xcdb760] frame P:3439  Avg QP:26.94  size: 12329
  672. [libx264 @ 0xcdb760] frame B:2163  Avg QP:29.56  size:  3583
  673. [libx264 @ 0xcdb760] consecutive B-frames: 34.4% 41.6%  8.9% 15.1%
  674. [libx264 @ 0xcdb760] mb I  I16..4: 14.0% 75.4% 10.6%
  675. [libx264 @ 0xcdb760] mb P  I16..4:  1.2% 13.5%  3.6%  P16..4: 18.4% 11.7%  6.6%  0.0%  0.0%    skip:45.0%
  676. [libx264 @ 0xcdb760] mb B  I16..4:  0.1%  0.7%  0.1%  B16..8: 13.6%  3.8%  1.3%  direct: 6.1%  skip:74.4%  L0:49.4% L1:35.2% BI:15.4%
  677. [libx264 @ 0xcdb760] 8x8 transform intra:74.4% inter:38.0%
  678. [libx264 @ 0xcdb760] coded y,uvDC,uvAC intra: 69.2% 76.5% 69.6% inter: 22.0% 26.3% 16.4%
  679. [libx264 @ 0xcdb760] i16 v,h,dc,p: 36% 14%  9% 41%
  680. [libx264 @ 0xcdb760] i8 v,h,dc,ddl,ddr,vr,hd,vl,hu: 17% 10% 41%  5%  6%  5%  6%  5%  6%
  681. [libx264 @ 0xcdb760] i4 v,h,dc,ddl,ddr,vr,hd,vl,hu: 19% 11% 23%  9%  8%  8%  7%  7%  7%
  682. [libx264 @ 0xcdb760] i8c dc,h,v,p: 62% 13% 11% 14%
  683. [libx264 @ 0xcdb760] Weighted P-Frames: Y:17.8% UV:14.4%
  684. [libx264 @ 0xcdb760] ref P L0: 47.0% 14.6% 21.0% 14.3%  3.1%
  685. [libx264 @ 0xcdb760] ref B L0: 59.7% 38.6%  1.6%
  686. [libx264 @ 0xcdb760] ref B L1: 97.5%  2.5%
  687. [libx264 @ 0xcdb760] kb/s:1822.54
RAW Paste Data
We use cookies for various purposes including analytics. By continuing to use Pastebin, you agree to our use of cookies as described in the Cookies Policy. OK, I Understand
 
Top