SHARE
TWEET

Untitled

mft39anton Dec 16th, 2017 320 Never
Not a member of Pastebin yet? Sign Up, it unlocks many cool features!
  1. General
  2. Unique ID                                : 225899547626932314259958714293124420834 (0xA9F2AB9A1479B8918A1388C9913154E2)
  3. Complete name                            : F:\HDS\Algo en que creer (Herrens veje) 1x01 No tendrás dioses ajenos delante de mí [HDTV 720p x2634 Dual 5.1 Sub][GrupoHDS-Sharerip].mkv
  4. Format                                   : Matroska
  5. Format version                           : Version 4 / Version 2
  6. File size                                : 2.78 GiB
  7. Duration                                 : 59 min 27 s
  8. Overall bit rate                         : 6 683 kb/s
  9. Movie name                               : Algo en que creer (Herrens veje) 1x01 No tendrás dioses ajenos delante de mí [HDTV 720p x2634 Dual 5.1 Sub][GrupoHDS-Sharerip]
  10. Encoded date                             : UTC 2017-12-14 22:00:13
  11. Writing application                      : mkvmerge v18.0.0 ('Apricity') 64-bit
  12. Writing library                          : libebml v1.3.5 + libmatroska v1.4.8
  13.  
  14. Video
  15. ID                                       : 1
  16. Format                                   : AVC
  17. Format/Info                              : Advanced Video Codec
  18. Format profile                           : High@L4.1
  19. Format settings                          : CABAC / 10 Ref Frames
  20. Format settings, CABAC                   : Yes
  21. Format settings, RefFrames               : 10 frames
  22. Codec ID                                 : V_MPEG4/ISO/AVC
  23. Duration                                 : 59 min 27 s
  24. Bit rate                                 : 5 401 kb/s
  25. Width                                    : 1 280 pixels
  26. Height                                   : 640 pixels
  27. Display aspect ratio                     : 2.000
  28. Frame rate mode                          : Constant
  29. Frame rate                               : 25.000 FPS
  30. Color space                              : YUV
  31. Chroma subsampling                       : 4:2:0
  32. Bit depth                                : 8 bits
  33. Scan type                                : Progressive
  34. Bits/(Pixel*Frame)                       : 0.264
  35. Stream size                              : 2.24 GiB (81%)
  36. Title                                    : Algo en que creer (Herrens veje) 1x01 No tendrás dioses ajenos delante de mí [HDTV 720p x2634 Dual 5.1 Sub][GrupoHDS-Sharerip]
  37. Writing library                          : x264 core 152 r2851 ba24899
  38. Encoding settings                        : cabac=1 / ref=10 / deblock=1:-3:-3 / analyse=0x3:0x133 / me=umh / subme=11 / psy=1 / psy_rd=1.00:0.00 / mixed_ref=1 / me_range=32 / chroma_me=1 / trellis=2 / 8x8dct=1 / cqm=0 / deadzone=21,11 / fast_pskip=0 / chroma_qp_offset=-2 / threads=18 / lookahead_threads=3 / sliced_threads=0 / nr=0 / decimate=0 / interlaced=0 / bluray_compat=0 / constrained_intra=0 / bframes=8 / b_pyramid=2 / b_adapt=2 / b_bias=0 / direct=3 / weightb=1 / open_gop=0 / weightp=2 / keyint=250 / keyint_min=25 / scenecut=40 / intra_refresh=0 / rc_lookahead=60 / rc=crf / mbtree=0 / crf=17.0 / qcomp=0.65 / qpmin=0 / qpmax=69 / qpstep=4 / vbv_maxrate=62500 / vbv_bufsize=78125 / crf_max=0.0 / nal_hrd=none / filler=0 / ip_ratio=1.20 / pb_ratio=1.20 / aq=3:0.80
  39. Language                                 : Spanish
  40. Default                                  : Yes
  41. Forced                                   : Yes
  42.  
  43. Audio #1
  44. ID                                       : 2
  45. Format                                   : AC-3
  46. Format/Info                              : Audio Coding 3
  47. Format settings, Endianness              : Big
  48. Codec ID                                 : A_AC3
  49. Duration                                 : 59 min 27 s
  50. Bit rate mode                            : Constant
  51. Bit rate                                 : 640 kb/s
  52. Channel(s)                               : 6 channels
  53. Channel positions                        : Front: L C R, Side: L R, LFE
  54. Sampling rate                            : 48.0 kHz
  55. Frame rate                               : 31.250 FPS (1536 SPF)
  56. Bit depth                                : 16 bits
  57. Compression mode                         : Lossy
  58. Stream size                              : 272 MiB (10%)
  59. Language                                 : Spanish
  60. Service kind                             : Complete Main
  61. Default                                  : Yes
  62. Forced                                   : Yes
  63.  
  64. Audio #2
  65. ID                                       : 3
  66. Format                                   : AC-3
  67. Format/Info                              : Audio Coding 3
  68. Format settings, Endianness              : Big
  69. Codec ID                                 : A_AC3
  70. Duration                                 : 59 min 27 s
  71. Bit rate mode                            : Constant
  72. Bit rate                                 : 640 kb/s
  73. Channel(s)                               : 6 channels
  74. Channel positions                        : Front: L C R, Side: L R, LFE
  75. Sampling rate                            : 48.0 kHz
  76. Frame rate                               : 31.250 FPS (1536 SPF)
  77. Bit depth                                : 16 bits
  78. Compression mode                         : Lossy
  79. Stream size                              : 272 MiB (10%)
  80. Language                                 : Danish
  81. Service kind                             : Complete Main
  82. Default                                  : No
  83. Forced                                   : No
  84.  
  85. Text
  86. ID                                       : 4
  87. Format                                   : UTF-8
  88. Codec ID                                 : S_TEXT/UTF8
  89. Codec ID/Info                            : UTF-8 Plain Text
  90. Duration                                 : 57 min 17 s
  91. Bit rate                                 : 55 b/s
  92. Count of elements                        : 751
  93. Stream size                              : 23.2 KiB (0%)
  94. Language                                 : Spanish
  95. Default                                  : No
  96. Forced                                   : No
RAW Paste Data
We use cookies for various purposes including analytics. By continuing to use Pastebin, you agree to our use of cookies as described in the Cookies Policy. OK, I Understand
 
Top