Guest User

Untitled

a guest
Oct 20th, 2019
231
Never
Not a member of Pastebin yet? Sign Up, it unlocks many cool features!
  1. General
  2. Unique ID : 276264156183053509023701676631800247278 (0xCFD68A853A178272FEF63AC8ACC173EE)
  3. Complete name : Modern.Love.S01E01.When.the.Doorman.Is.Your.Main.Man.1080p.AMZN.WEB-DL.DDP5.1.H.264-NTb
  4. Format : Matroska
  5. Format version : Version 4
  6. File size : 4.16 GiB
  7. Duration : 31 min 44 s
  8. Overall bit rate : 18.8 Mb/s
  9. Encoded date : UTC 2019-10-20 18:17:34
  10. Writing application : mkvmerge v32.0.0 ('Astral Progressions') 64-bit
  11. Writing library : libebml v1.3.7 + libmatroska v1.5.0
  12.  
  13. Video
  14. ID : 1
  15. Format : AVC
  16. Format/Info : Advanced Video Codec
  17. Format profile : High@L4.1
  18. Format settings : CABAC / 4 Ref Frames
  19. Format settings, CABAC : Yes
  20. Format settings, Reference frames : 4 frames
  21. Codec ID : V_MPEG4/ISO/AVC
  22. Duration : 31 min 44 s
  23. Bit rate : 18.1 Mb/s
  24. Width : 1 920 pixels
  25. Height : 960 pixels
  26. Display aspect ratio : 2.000
  27. Frame rate mode : Constant
  28. Frame rate : 23.976 (24000/1001) FPS
  29. Color space : YUV
  30. Chroma subsampling : 4:2:0
  31. Bit depth : 8 bits
  32. Scan type : Progressive
  33. Bits/(Pixel*Frame) : 0.410
  34. Stream size : 4.02 GiB (97%)
  35. Writing library : x264 core 157 r2969 d4099dd
  36. Encoding settings : cabac=1 / ref=4 / deblock=1:-3:-3 / analyse=0x3:0x133 / me=umh / subme=10 / psy=1 / psy_rd=1.00:0.15 / mixed_ref=1 / me_range=48 / chroma_me=1 / trellis=2 / 8x8dct=1 / cqm=0 / deadzone=21,11 / fast_pskip=0 / chroma_qp_offset=-3 / threads=24 / lookahead_threads=4 / sliced_threads=0 / nr=0 / decimate=0 / interlaced=0 / bluray_compat=0 / constrained_intra=0 / bframes=8 / b_pyramid=2 / b_adapt=2 / b_bias=0 / direct=3 / weightb=1 / open_gop=0 / weightp=2 / keyint=250 / keyint_min=23 / scenecut=40 / intra_refresh=0 / rc=crf / mbtree=0 / crf=17.0 / qcomp=0.60 / qpmin=0 / qpmax=69 / qpstep=4 / ip_ratio=1.30 / pb_ratio=1.20 / aq=3:0.80
  37. Language : English
  38. Default : Yes
  39. Forced : No
  40.  
  41. Audio
  42. ID : 2
  43. Format : E-AC-3
  44. Format/Info : Enhanced AC-3
  45. Commercial name : Dolby Digital Plus
  46. Codec ID : A_EAC3
  47. Duration : 31 min 44 s
  48. Bit rate mode : Constant
  49. Bit rate : 640 kb/s
  50. Channel(s) : 6 channels
  51. Channel layout : L R C LFE Ls Rs
  52. Sampling rate : 48.0 kHz
  53. Frame rate : 31.250 FPS (1536 SPF)
  54. Compression mode : Lossy
  55. Stream size : 145 MiB (3%)
  56. Language : English
  57. Service kind : Complete Main
  58. Default : Yes
  59. Forced : No
  60.  
  61. Text #1
  62. ID : 3
  63. Format : UTF-8
  64. Codec ID : S_TEXT/UTF8
  65. Codec ID/Info : UTF-8 Plain Text
  66. Duration : 28 min 56 s
  67. Bit rate : 93 b/s
  68. Count of elements : 432
  69. Stream size : 19.9 KiB (0%)
  70. Language : Arabic
  71. Default : No
  72. Forced : No
  73.  
  74. Text #2
  75. ID : 4
  76. Format : UTF-8
  77. Codec ID : S_TEXT/UTF8
  78. Codec ID/Info : UTF-8 Plain Text
  79. Duration : 28 min 49 s
  80. Bit rate : 55 b/s
  81. Count of elements : 428
  82. Stream size : 11.8 KiB (0%)
  83. Language : Danish
  84. Default : No
  85. Forced : No
  86.  
  87. Text #3
  88. ID : 5
  89. Format : UTF-8
  90. Codec ID : S_TEXT/UTF8
  91. Codec ID/Info : UTF-8 Plain Text
  92. Duration : 28 min 50 s
  93. Bit rate : 57 b/s
  94. Count of elements : 361
  95. Stream size : 12.1 KiB (0%)
  96. Language : German
  97. Default : No
  98. Forced : No
  99.  
  100. Text #4
  101. ID : 6
  102. Format : UTF-8
  103. Codec ID : S_TEXT/UTF8
  104. Codec ID/Info : UTF-8 Plain Text
  105. Duration : 31 min 22 s
  106. Bit rate : 70 b/s
  107. Count of elements : 574
  108. Stream size : 16.3 KiB (0%)
  109. Title : SDH
  110. Language : English
  111. Default : No
  112. Forced : No
  113.  
  114. Text #5
  115. ID : 7
  116. Format : UTF-8
  117. Codec ID : S_TEXT/UTF8
  118. Codec ID/Info : UTF-8 Plain Text
  119. Duration : 28 min 56 s
  120. Bit rate : 55 b/s
  121. Count of elements : 432
  122. Stream size : 11.8 KiB (0%)
  123. Title : Latinoamérica
  124. Language : Spanish
  125. Default : No
  126. Forced : No
  127.  
  128. Text #6
  129. ID : 8
  130. Format : UTF-8
  131. Codec ID : S_TEXT/UTF8
  132. Codec ID/Info : UTF-8 Plain Text
  133. Duration : 28 min 49 s
  134. Bit rate : 56 b/s
  135. Count of elements : 431
  136. Stream size : 11.9 KiB (0%)
  137. Title : España
  138. Language : Spanish
  139. Default : No
  140. Forced : No
  141.  
  142. Text #7
  143. ID : 9
  144. Format : UTF-8
  145. Codec ID : S_TEXT/UTF8
  146. Codec ID/Info : UTF-8 Plain Text
  147. Duration : 28 min 56 s
  148. Bit rate : 52 b/s
  149. Count of elements : 429
  150. Stream size : 11.1 KiB (0%)
  151. Language : Finnish
  152. Default : No
  153. Forced : No
  154.  
  155. Text #8
  156. ID : 10
  157. Format : UTF-8
  158. Codec ID : S_TEXT/UTF8
  159. Codec ID/Info : UTF-8 Plain Text
  160. Duration : 28 min 49 s
  161. Bit rate : 53 b/s
  162. Count of elements : 431
  163. Stream size : 11.3 KiB (0%)
  164. Language : French
  165. Default : No
  166. Forced : No
  167.  
  168. Text #9
  169. ID : 11
  170. Format : UTF-8
  171. Codec ID : S_TEXT/UTF8
  172. Codec ID/Info : UTF-8 Plain Text
  173. Duration : 28 min 56 s
  174. Bit rate : 87 b/s
  175. Count of elements : 432
  176. Stream size : 18.6 KiB (0%)
  177. Language : Hebrew
  178. Default : No
  179. Forced : No
  180.  
  181. Text #10
  182. ID : 12
  183. Format : UTF-8
  184. Codec ID : S_TEXT/UTF8
  185. Codec ID/Info : UTF-8 Plain Text
  186. Duration : 28 min 56 s
  187. Bit rate : 149 b/s
  188. Count of elements : 431
  189. Stream size : 31.7 KiB (0%)
  190. Language : Hindi
  191. Default : No
  192. Forced : No
  193.  
  194. Text #11
  195. ID : 13
  196. Format : UTF-8
  197. Codec ID : S_TEXT/UTF8
  198. Codec ID/Info : UTF-8 Plain Text
  199. Duration : 28 min 56 s
  200. Bit rate : 50 b/s
  201. Count of elements : 431
  202. Stream size : 10.7 KiB (0%)
  203. Language : Indonesian
  204. Default : No
  205. Forced : No
  206.  
  207. Text #12
  208. ID : 14
  209. Format : UTF-8
  210. Codec ID : S_TEXT/UTF8
  211. Codec ID/Info : UTF-8 Plain Text
  212. Duration : 28 min 49 s
  213. Bit rate : 55 b/s
  214. Count of elements : 431
  215. Stream size : 11.7 KiB (0%)
  216. Language : Italian
  217. Default : No
  218. Forced : No
  219.  
  220. Text #13
  221. ID : 15
  222. Format : UTF-8
  223. Codec ID : S_TEXT/UTF8
  224. Codec ID/Info : UTF-8 Plain Text
  225. Duration : 28 min 58 s
  226. Bit rate : 47 b/s
  227. Count of elements : 392
  228. Stream size : 9.98 KiB (0%)
  229. Language : Japanese
  230. Default : No
  231. Forced : No
  232.  
  233. Text #14
  234. ID : 16
  235. Format : UTF-8
  236. Codec ID : S_TEXT/UTF8
  237. Codec ID/Info : UTF-8 Plain Text
  238. Duration : 28 min 56 s
  239. Bit rate : 60 b/s
  240. Count of elements : 432
  241. Stream size : 12.7 KiB (0%)
  242. Language : Korean
  243. Default : No
  244. Forced : No
  245.  
  246. Text #15
  247. ID : 17
  248. Format : UTF-8
  249. Codec ID : S_TEXT/UTF8
  250. Codec ID/Info : UTF-8 Plain Text
  251. Duration : 28 min 49 s
  252. Bit rate : 52 b/s
  253. Count of elements : 430
  254. Stream size : 11.2 KiB (0%)
  255. Language : Norwegian Bokmal
  256. Default : No
  257. Forced : No
  258.  
  259. Text #16
  260. ID : 18
  261. Format : UTF-8
  262. Codec ID : S_TEXT/UTF8
  263. Codec ID/Info : UTF-8 Plain Text
  264. Duration : 28 min 49 s
  265. Bit rate : 49 b/s
  266. Count of elements : 412
  267. Stream size : 10.4 KiB (0%)
  268. Language : Dutch
  269. Default : No
  270. Forced : No
  271.  
  272. Text #17
  273. ID : 19
  274. Format : UTF-8
  275. Codec ID : S_TEXT/UTF8
  276. Codec ID/Info : UTF-8 Plain Text
  277. Duration : 28 min 56 s
  278. Bit rate : 51 b/s
  279. Count of elements : 418
  280. Stream size : 10.8 KiB (0%)
  281. Language : Polish
  282. Default : No
  283. Forced : No
  284.  
  285. Text #18
  286. ID : 20
  287. Format : UTF-8
  288. Codec ID : S_TEXT/UTF8
  289. Codec ID/Info : UTF-8 Plain Text
  290. Duration : 28 min 56 s
  291. Bit rate : 53 b/s
  292. Count of elements : 431
  293. Stream size : 11.3 KiB (0%)
  294. Language : Portuguese
  295. Default : No
  296. Forced : No
  297.  
  298. Text #19
  299. ID : 21
  300. Format : UTF-8
  301. Codec ID : S_TEXT/UTF8
  302. Codec ID/Info : UTF-8 Plain Text
  303. Duration : 28 min 56 s
  304. Bit rate : 94 b/s
  305. Count of elements : 432
  306. Stream size : 20.0 KiB (0%)
  307. Language : Russian
  308. Default : No
  309. Forced : No
  310.  
  311. Text #20
  312. ID : 22
  313. Format : UTF-8
  314. Codec ID : S_TEXT/UTF8
  315. Codec ID/Info : UTF-8 Plain Text
  316. Duration : 28 min 56 s
  317. Bit rate : 56 b/s
  318. Count of elements : 431
  319. Stream size : 12.0 KiB (0%)
  320. Language : Swedish
  321. Default : No
  322. Forced : No
  323.  
  324. Text #21
  325. ID : 23
  326. Format : UTF-8
  327. Codec ID : S_TEXT/UTF8
  328. Codec ID/Info : UTF-8 Plain Text
  329. Duration : 28 min 56 s
  330. Bit rate : 165 b/s
  331. Count of elements : 432
  332. Stream size : 35.2 KiB (0%)
  333. Language : Tamil
  334. Default : No
  335. Forced : No
  336.  
  337. Text #22
  338. ID : 24
  339. Format : UTF-8
  340. Codec ID : S_TEXT/UTF8
  341. Codec ID/Info : UTF-8 Plain Text
  342. Duration : 28 min 56 s
  343. Bit rate : 161 b/s
  344. Count of elements : 432
  345. Stream size : 34.3 KiB (0%)
  346. Language : Telugu
  347. Default : No
  348. Forced : No
  349.  
  350. Text #23
  351. ID : 25
  352. Format : UTF-8
  353. Codec ID : S_TEXT/UTF8
  354. Codec ID/Info : UTF-8 Plain Text
  355. Duration : 28 min 56 s
  356. Bit rate : 128 b/s
  357. Count of elements : 431
  358. Stream size : 27.2 KiB (0%)
  359. Language : Thai
  360. Default : No
  361. Forced : No
  362.  
  363. Text #24
  364. ID : 26
  365. Format : UTF-8
  366. Codec ID : S_TEXT/UTF8
  367. Codec ID/Info : UTF-8 Plain Text
  368. Duration : 28 min 56 s
  369. Bit rate : 52 b/s
  370. Count of elements : 432
  371. Stream size : 11.2 KiB (0%)
  372. Language : Turkish
  373. Default : No
  374. Forced : No
  375.  
  376. Text #25
  377. ID : 27
  378. Format : UTF-8
  379. Codec ID : S_TEXT/UTF8
  380. Codec ID/Info : UTF-8 Plain Text
  381. Duration : 28 min 56 s
  382. Bit rate : 48 b/s
  383. Count of elements : 432
  384. Stream size : 10.3 KiB (0%)
  385. Title : 中文(简体)
  386. Language : Chinese
  387. Default : No
  388. Forced : No
  389.  
  390. Text #26
  391. ID : 28
  392. Format : UTF-8
  393. Codec ID : S_TEXT/UTF8
  394. Codec ID/Info : UTF-8 Plain Text
  395. Duration : 28 min 56 s
  396. Bit rate : 48 b/s
  397. Count of elements : 432
  398. Stream size : 10.4 KiB (0%)
  399. Title : 中文(繁體)
  400. Language : Chinese
  401. Default : No
  402. Forced : No
  403.  
  404. Menu
  405. 00:00:00.000 : en:Amazon Original
  406. 00:00:05.000 : en:Acknowledgement
  407. 00:00:10.000 : en:Opening Credits
  408. 00:01:07.000 : en:A kiss goodnight
  409. 00:04:00.000 : en:Title Sequence
  410. 00:04:06.000 : en:Guzmin is overprotective
  411. 00:09:36.000 : en:Men are predictable
  412. 00:11:44.000 : en:Something is different
  413. 00:16:12.000 : en:Maggie tells Ted the truth
  414. 00:18:15.000 : en:Maggie and Guzmin share a bond
  415. 00:21:18.000 : en:Everything changes with new life
  416. 00:25:42.000 : en:Some tough news
  417. 00:28:01.000 : en:The truth is in the eyes
  418. 00:30:45.000 : en:End Credits
RAW Paste Data