SHARE
TWEET

Untitled

a guest Oct 21st, 2019 95 Never
Not a member of Pastebin yet? Sign Up, it unlocks many cool features!
  1. General
  2. Unique ID                                : 217450330147209167648952089801182073062 (0xA39769047D1294724EDAD089523AD0E6)
  3. Complete name                            : The.Kill.Team.2019.1080p.WEB-DL.DD5.1.H264-CMRG
  4. Format                                   : Matroska
  5. Format version                           : Version 4
  6. File size                                : 3.36 GiB
  7. Duration                                 : 1 h 27 min
  8. Overall bit rate                         : 5 503 kb/s
  9. Encoded date                             : UTC 2019-10-22 04:07:06
  10. Writing application                      : mkvmerge v25.0.0 ('Prog Noir') 32-bit
  11. Writing library                          : libebml v1.3.6 + libmatroska v1.4.9
  12.  
  13. Video
  14. ID                                       : 1
  15. Format                                   : AVC
  16. Format/Info                              : Advanced Video Codec
  17. Format profile                           : High@L4
  18. Format settings                          : CABAC / 2 Ref Frames
  19. Format settings, CABAC                   : Yes
  20. Format settings, Reference frames        : 2 frames
  21. Codec ID                                 : V_MPEG4/ISO/AVC
  22. Duration                                 : 1 h 27 min
  23. Bit rate                                 : 5 117 kb/s
  24. Width                                    : 1 920 pixels
  25. Height                                   : 1 080 pixels
  26. Display aspect ratio                     : 16:9
  27. Frame rate mode                          : Constant
  28. Frame rate                               : 23.976 (24000/1001) FPS
  29. Color space                              : YUV
  30. Chroma subsampling                       : 4:2:0
  31. Bit depth                                : 8 bits
  32. Scan type                                : Progressive
  33. Bits/(Pixel*Frame)                       : 0.103
  34. Stream size                              : 3.13 GiB (93%)
  35. Writing library                          : x264 core 155 r2901 7d0ff22
  36. Default                                  : Yes
  37. Forced                                   : No
  38. Color range                              : Limited
  39. Color primaries                          : BT.709
  40. Transfer characteristics                 : BT.709
  41. Matrix coefficients                      : BT.709
  42.  
  43. Audio
  44. ID                                       : 2
  45. Format                                   : AC-3
  46. Format/Info                              : Audio Coding 3
  47. Commercial name                          : Dolby Digital
  48. Codec ID                                 : A_AC3
  49. Duration                                 : 1 h 27 min
  50. Bit rate mode                            : Constant
  51. Bit rate                                 : 384 kb/s
  52. Channel(s)                               : 6 channels
  53. Channel layout                           : L R C LFE Ls Rs
  54. Sampling rate                            : 48.0 kHz
  55. Frame rate                               : 31.250 FPS (1536 SPF)
  56. Bit depth                                : 16 bits
  57. Compression mode                         : Lossy
  58. Stream size                              : 240 MiB (7%)
  59. Title                                    : English
  60. Language                                 : English
  61. Service kind                             : Complete Main
  62. Default                                  : Yes
  63. Forced                                   : No
RAW Paste Data
We use cookies for various purposes including analytics. By continuing to use Pastebin, you agree to our use of cookies as described in the Cookies Policy. OK, I Understand
 
Top