Ledger Nano X - The secure hardware wallet
SHARE
TWEET

Untitled

a guest Jan 9th, 2020 68 Never
Not a member of Pastebin yet? Sign Up, it unlocks many cool features!
  1. General
  2. Unique ID : 145106116916482294106379013233343049631 (0x6D2A6BEBE6C7134BB63507D84FBDAF9F)
  3. Complete name : 10th.&.Wolf.2005.BDRemux.[iP27].mkv
  4. Format : Matroska
  5. Format version : Version 4
  6. File size : 16.4 GiB
  7. Duration : 1 h 43 min
  8. Overall bit rate mode : Variable
  9. Overall bit rate : 22.7 Mb/s
  10. Movie name : 10th & Wolf (Пересечение 10-й и Вульф) 2005 - [iP27]
  11. Encoded date : UTC 2020-01-07 10:46:54
  12. Writing application : mkvmerge v42.0.0 ('Overtime') 64-bit
  13. Writing library : libebml v1.3.10 + libmatroska v1.5.2
  14.  
  15. Video
  16. ID : 1
  17. Format : AVC
  18. Format/Info : Advanced Video Codec
  19. Format profile : High@L4.1
  20. Format settings : CABAC / 3 Ref Frames
  21. Format settings, CABAC : Yes
  22. Format settings, Reference frames : 3 frames
  23. Format settings, GOP : M=3, N=12
  24. Codec ID : V_MPEG4/ISO/AVC
  25. Duration : 1 h 43 min
  26. Bit rate mode : Variable
  27. Bit rate : 20.4 Mb/s
  28. Maximum bit rate : 35.0 Mb/s
  29. Width : 1 920 pixels
  30. Height : 1 080 pixels
  31. Display aspect ratio : 16:9
  32. Frame rate mode : Constant
  33. Frame rate : 25.000 FPS
  34. Standard : NTSC
  35. Color space : YUV
  36. Chroma subsampling : 4:2:0
  37. Bit depth : 8 bits
  38. Scan type : MBAFF
  39. Bits/(Pixel*Frame) : 0.393
  40. Stream size : 14.8 GiB (90%)
  41. Language : English
  42. Default : Yes
  43. Forced : No
  44. Color range : Limited
  45. Color primaries : BT.709
  46. Transfer characteristics : BT.709
  47. Matrix coefficients : BT.709
  48.  
  49. Audio #1
  50. ID : 2
  51. Format : AC-3
  52. Format/Info : Audio Coding 3
  53. Commercial name : Dolby Digital
  54. Codec ID : A_AC3
  55. Duration : 1 h 43 min
  56. Bit rate mode : Constant
  57. Bit rate : 448 kb/s
  58. Channel(s) : 6 channels
  59. Channel layout : L R C LFE Ls Rs
  60. Sampling rate : 48.0 kHz
  61. Frame rate : 31.250 FPS (1536 SPF)
  62. Compression mode : Lossy
  63. Stream size : 333 MiB (2%)
  64. Title : AVO (М. Чадов) [перевод 7654]
  65. Language : Russian
  66. Service kind : Complete Main
  67. Default : Yes
  68. Forced : No
  69.  
  70. Audio #2
  71. ID : 3
  72. Format : DTS
  73. Format/Info : Digital Theater Systems
  74. Codec ID : A_DTS
  75. Duration : 1 h 43 min
  76. Bit rate mode : Constant
  77. Bit rate : 755 kb/s
  78. Channel(s) : 6 channels
  79. Channel layout : C L R Ls Rs LFE
  80. Sampling rate : 48.0 kHz
  81. Frame rate : 93.750 FPS (512 SPF)
  82. Bit depth : 24 bits
  83. Compression mode : Lossy
  84. Stream size : 560 MiB (3%)
  85. Title : MVO (R5)
  86. Language : Russian
  87. Default : No
  88. Forced : No
  89.  
  90. Audio #3
  91. ID : 4
  92. Format : AC-3
  93. Format/Info : Audio Coding 3
  94. Commercial name : Dolby Digital
  95. Codec ID : A_AC3
  96. Duration : 1 h 43 min
  97. Bit rate mode : Constant
  98. Bit rate : 192 kb/s
  99. Channel(s) : 2 channels
  100. Channel layout : L R
  101. Sampling rate : 48.0 kHz
  102. Frame rate : 31.250 FPS (1536 SPF)
  103. Compression mode : Lossy
  104. Stream size : 143 MiB (1%)
  105. Title : AVO (Е. Гранкин)
  106. Language : Russian
  107. Service kind : Complete Main
  108. Default : No
  109. Forced : No
  110.  
  111. Audio #4
  112. ID : 5
  113. Format : AC-3
  114. Format/Info : Audio Coding 3
  115. Commercial name : Dolby Digital
  116. Codec ID : A_AC3
  117. Duration : 1 h 43 min
  118. Bit rate mode : Constant
  119. Bit rate : 192 kb/s
  120. Channel(s) : 2 channels
  121. Channel layout : L R
  122. Sampling rate : 48.0 kHz
  123. Frame rate : 31.250 FPS (1536 SPF)
  124. Compression mode : Lossy
  125. Stream size : 143 MiB (1%)
  126. Title : MVO (Студія Мова)
  127. Language : Russian
  128. Service kind : Complete Main
  129. Default : No
  130. Forced : No
  131.  
  132. Audio #5
  133. ID : 6
  134. Format : AC-3
  135. Format/Info : Audio Coding 3
  136. Commercial name : Dolby Digital
  137. Codec ID : A_AC3
  138. Duration : 1 h 43 min
  139. Bit rate mode : Constant
  140. Bit rate : 448 kb/s
  141. Channel(s) : 6 channels
  142. Channel layout : L R C LFE Ls Rs
  143. Sampling rate : 48.0 kHz
  144. Frame rate : 31.250 FPS (1536 SPF)
  145. Compression mode : Lossy
  146. Stream size : 333 MiB (2%)
  147. Title : Original
  148. Language : English
  149. Service kind : Complete Main
  150. Default : No
  151. Forced : No
  152.  
  153. Audio #6
  154. ID : 7
  155. Format : AC-3
  156. Format/Info : Audio Coding 3
  157. Commercial name : Dolby Digital
  158. Codec ID : A_AC3
  159. Duration : 1 h 43 min
  160. Bit rate mode : Constant
  161. Bit rate : 256 kb/s
  162. Channel(s) : 2 channels
  163. Channel layout : L R
  164. Sampling rate : 48.0 kHz
  165. Frame rate : 31.250 FPS (1536 SPF)
  166. Compression mode : Lossy
  167. Stream size : 190 MiB (1%)
  168. Title : Commentary
  169. Language : Russian
  170. Service kind : Complete Main
  171. Default : No
  172. Forced : No
  173.  
  174. Text #1
  175. ID : 8
  176. Format : UTF-8
  177. Codec ID : S_TEXT/UTF8
  178. Codec ID/Info : UTF-8 Plain Text
  179. Duration : 1 h 38 min
  180. Bit rate : 71 b/s
  181. Count of elements : 1315
  182. Stream size : 51.7 KiB (0%)
  183. Language : Russian
  184. Default : Yes
  185. Forced : No
  186.  
  187. Text #2
  188. ID : 9
  189. Format : UTF-8
  190. Codec ID : S_TEXT/UTF8
  191. Codec ID/Info : UTF-8 Plain Text
  192. Duration : 1 h 36 min
  193. Bit rate : 51 b/s
  194. Count of elements : 1287
  195. Stream size : 36.7 KiB (0%)
  196. Language : English
  197. Default : No
  198. Forced : No
  199.  
  200. Menu
  201. 00:00:00.000 : en:00:00:00.000
  202. 00:20:00.000 : en:00:20:00.000
  203. 00:40:00.000 : en:00:40:00.000
  204. 01:00:00.000 : en:01:00:00.000
  205. 01:15:00.000 : en:01:15:00.000
  206. 01:30:00.000 : en:01:30:00.000
RAW Paste Data
We use cookies for various purposes including analytics. By continuing to use Pastebin, you agree to our use of cookies as described in the Cookies Policy. OK, I Understand
Top