iMN0

Welcome.to.Marwen.2018.1080p.BluRay.DD+5.1.x264-DON.mkv

Jul 4th, 2021
81
Never
Not a member of Pastebin yet? Sign Up, it unlocks many cool features!
  1. General
  2. Complete name : Welcome.to.Marwen.2018.1080p.BluRay.DD+5.1.x264-DON.mkv
  3. Format : Matroska
  4. Format version : Version 4
  5. File size : 10.7 GiB
  6. Duration : 1 h 55 min
  7. Overall bit rate : 13.2 Mb/s
  8. Encoded date : UTC 2019-07-11 14:58:34
  9. Writing application : mkvmerge v35.0.0 ('All The Love In The World') 64-bit
  10. Writing library : libebml v1.3.9 + libmatroska v1.5.2
  11.  
  12. Video
  13. ID : 1
  14. Format : AVC
  15. Format/Info : Advanced Video Codec
  16. Format profile : High@L4.1
  17. Format settings : CABAC / 5 Ref Frames
  18. Format settings, CABAC : Yes
  19. Format settings, Reference frames : 5 frames
  20. Codec ID : V_MPEG4/ISO/AVC
  21. Duration : 1 h 55 min
  22. Bit rate : 12.2 Mb/s
  23. Width : 1 920 pixels
  24. Height : 804 pixels
  25. Display aspect ratio : 2.40:1
  26. Frame rate mode : Constant
  27. Frame rate : 23.976 (24000/1001) FPS
  28. Color space : YUV
  29. Chroma subsampling : 4:2:0
  30. Bit depth : 8 bits
  31. Scan type : Progressive
  32. Bits/(Pixel*Frame) : 0.330
  33. Stream size : 9.90 GiB (92%)
  34. Writing library : x264 core 157 r2970+47 cae74a0 t_mod_New [0-bit@all X86_64]
  35. Encoding settings : cabac=1 / ref=5 / deblock=1:-3:-3 / analyse=0x3:0x133 / me=umh / subme=10 / psy=1 / fade_compensate=0.00 / psy_rd=1.00:0.00 / mixed_ref=1 / me_range=32 / chroma_me=1 / trellis=2 / 8x8dct=1 / cqm=0 / deadzone=21,11 / fast_pskip=0 / chroma_qp_offset=-2 / threads=12 / lookahead_threads=2 / sliced_threads=0 / nr=0 / decimate=0 / interlaced=0 / bluray_compat=0 / constrained_intra=0 / fgo=0 / bframes=9 / b_pyramid=2 / b_adapt=2 / b_bias=0 / direct=3 / weightb=1 / open_gop=0 / weightp=2 / keyint=250 / keyint_min=23 / scenecut=40 / intra_refresh=0 / rc=crf / mbtree=0 / crf=15.7000 / qcomp=0.65 / qpmin=0:0:0 / qpmax=69:69:69 / qpstep=4 / ip_ratio=1.40 / pb_ratio=1.30 / aq=3:0.85 / aq-sensitivity=10.00 / aq-factor=1.00:1.00:1.00 / aq2=0 / aq3=0 / zones=89588,89825,crf=14.7/125545,126300,crf=15.2
  36. Language : English
  37. Default : Yes
  38. Forced : No
  39.  
  40. Audio
  41. ID : 2
  42. Format : E-AC-3
  43. Format/Info : Enhanced AC-3
  44. Commercial name : Dolby Digital Plus
  45. Codec ID : A_EAC3
  46. Duration : 1 h 55 min
  47. Bit rate mode : Constant
  48. Bit rate : 1 024 kb/s
  49. Channel(s) : 6 channels
  50. Channel layout : L R C LFE Ls Rs
  51. Sampling rate : 48.0 kHz
  52. Frame rate : 31.250 FPS (1536 SPF)
  53. Compression mode : Lossy
  54. Stream size : 849 MiB (8%)
  55. Title : DD+ 5.1@1024 kbps
  56. Language : English
  57. Service kind : Complete Main
  58. Default : Yes
  59. Forced : No
  60.  
  61. Text #1
  62. ID : 3
  63. Format : UTF-8
  64. Codec ID : S_TEXT/UTF8
  65. Codec ID/Info : UTF-8 Plain Text
  66. Duration : 1 h 46 min
  67. Bit rate : 50 b/s
  68. Count of elements : 1471
  69. Stream size : 39.6 KiB (0%)
  70. Language : English
  71. Default : No
  72. Forced : No
  73.  
  74. Text #2
  75. ID : 4
  76. Format : UTF-8
  77. Codec ID : S_TEXT/UTF8
  78. Codec ID/Info : UTF-8 Plain Text
  79. Duration : 1 h 55 min
  80. Bit rate : 57 b/s
  81. Count of elements : 1833
  82. Stream size : 48.6 KiB (0%)
  83. Title : SDH
  84. Language : English
  85. Default : No
  86. Forced : No
  87.  
  88. Text #3
  89. ID : 5
  90. Format : UTF-8
  91. Codec ID : S_TEXT/UTF8
  92. Codec ID/Info : UTF-8 Plain Text
  93. Duration : 1 h 54 min
  94. Bit rate : 51 b/s
  95. Count of elements : 1359
  96. Stream size : 43.3 KiB (0%)
  97. Title : Canadian
  98. Language : French
  99. Default : No
  100. Forced : No
  101.  
  102. Text #4
  103. ID : 6
  104. Format : UTF-8
  105. Codec ID : S_TEXT/UTF8
  106. Codec ID/Info : UTF-8 Plain Text
  107. Duration : 1 h 48 min
  108. Bit rate : 50 b/s
  109. Count of elements : 1367
  110. Stream size : 39.8 KiB (0%)
  111. Language : Romanian
  112. Default : No
  113. Forced : No
  114.  
  115. Text #5
  116. ID : 7
  117. Format : UTF-8
  118. Codec ID : S_TEXT/UTF8
  119. Codec ID/Info : UTF-8 Plain Text
  120. Duration : 1 h 54 min
  121. Bit rate : 46 b/s
  122. Count of elements : 1313
  123. Stream size : 39.1 KiB (0%)
  124. Title : Latin American
  125. Language : Spanish
  126. Default : No
  127. Forced : No
  128.  
  129. Menu
  130. 00:00:00.000 : :Chapter 01
  131. 00:04:17.257 : :Chapter 02
  132. 00:10:57.448 : :Chapter 03
  133. 00:16:42.877 : :Chapter 04
  134. 00:22:26.971 : :Chapter 05
  135. 00:27:34.820 : :Chapter 06
  136. 00:35:10.775 : :Chapter 07
  137. 00:41:09.217 : :Chapter 08
  138. 00:45:59.256 : :Chapter 09
  139. 00:51:35.634 : :Chapter 10
  140. 01:00:35.924 : :Chapter 11
  141. 01:03:30.974 : :Chapter 12
  142. 01:08:07.250 : :Chapter 13
  143. 01:13:38.706 : :Chapter 14
  144. 01:17:14.713 : :Chapter 15
  145. 01:25:13.525 : :Chapter 16
  146. 01:30:48.485 : :Chapter 17
  147. 01:39:34.719 : :Chapter 18
  148. 01:43:31.372 : :Chapter 19
  149. 01:48:50.232 : :Chapter 20
RAW Paste Data