GrabHD

Untitled

Mar 2nd, 2020
89
Never
Not a member of Pastebin yet? Sign Up, it unlocks many cool features!
  1. General
  2. Unique ID : 218814723123464314115769482642486676923 (0xA49E2EC8F1185C479170DDC0386B4DBB)
  3. Complete name : F:MKV-iP27From.Paris.with.Love.2010.BDRemux.[iP27].mkv
  4. Format : Matroska
  5. Format version : Version 4
  6. File size : 32.6 GiB
  7. Duration : 1 h 32 min
  8. Overall bit rate mode : Variable
  9. Overall bit rate : 50.3 Mb/s
  10. Movie name : From Paris with Love (Из Парижа с любовью) 2010 - [iP27]
  11. Encoded date : UTC 2020-03-01 10:26:53
  12. Writing application : mkvmerge v43.0.0 ('The Quartermaster') 64-bit
  13. Writing library : libebml v1.3.10 + libmatroska v1.5.2
  14. Attachments : CronosPro-Bold.ttf / CronosPro-Semibold.ttf / CronosPro-SemiboldIt.ttf
  15.  
  16. Video
  17. ID : 1
  18. Format : AVC
  19. Format/Info : Advanced Video Codec
  20. Format profile : High@L4.1
  21. Format settings : CABAC / 4 Ref Frames
  22. Format settings, CABAC : Yes
  23. Format settings, Reference frames : 4 frames
  24. Codec ID : V_MPEG4/ISO/AVC
  25. Duration : 1 h 32 min
  26. Bit rate mode : Variable
  27. Bit rate : 31.6 Mb/s
  28. Maximum bit rate : 33.0 Mb/s
  29. Width : 1 920 pixels
  30. Height : 1 080 pixels
  31. Display aspect ratio : 16:9
  32. Frame rate mode : Constant
  33. Frame rate : 23.976 (24000/1001) FPS
  34. Color space : YUV
  35. Chroma subsampling : 4:2:0
  36. Bit depth : 8 bits
  37. Scan type : Progressive
  38. Bits/(Pixel*Frame) : 0.636
  39. Stream size : 20.5 GiB (63%)
  40. Language : English
  41. Default : Yes
  42. Forced : No
  43. Color range : Limited
  44. Color primaries : BT.709
  45. Transfer characteristics : BT.709
  46. Matrix coefficients : BT.709
  47.  
  48. Audio #1
  49. ID : 2
  50. Format : DTS XLL
  51. Format/Info : Digital Theater Systems
  52. Commercial name : DTS-HD Master Audio
  53. Codec ID : A_DTS
  54. Duration : 1 h 32 min
  55. Bit rate mode : Variable
  56. Bit rate : 5 144 kb/s
  57. Channel(s) : 8 channels
  58. Channel layout : C L R LFE Lb Rb Lss Rss
  59. Sampling rate : 48.0 kHz
  60. Frame rate : 93.750 FPS (512 SPF)
  61. Bit depth : 24 bits
  62. Compression mode : Lossless
  63. Stream size : 3.33 GiB (10%)
  64. Title : AVO (М. Яроцкий 'kyberpunk') v2.0
  65. Language : Russian
  66. Default : Yes
  67. Forced : No
  68.  
  69. Audio #2
  70. ID : 3
  71. Format : DTS XLL
  72. Format/Info : Digital Theater Systems
  73. Commercial name : DTS-HD Master Audio
  74. Codec ID : A_DTS
  75. Duration : 1 h 32 min
  76. Bit rate mode : Variable
  77. Bit rate : 5 129 kb/s
  78. Channel(s) : 8 channels
  79. Channel layout : C L R LFE Lb Rb Lss Rss
  80. Sampling rate : 48.0 kHz
  81. Frame rate : 93.750 FPS (512 SPF)
  82. Bit depth : 24 bits
  83. Compression mode : Lossless
  84. Stream size : 3.32 GiB (10%)
  85. Title : AVO (А. Гаврилов)
  86. Language : Russian
  87. Default : No
  88. Forced : No
  89.  
  90. Audio #3
  91. ID : 4
  92. Format : DTS XLL
  93. Format/Info : Digital Theater Systems
  94. Commercial name : DTS-HD Master Audio
  95. Codec ID : A_DTS
  96. Duration : 1 h 32 min
  97. Bit rate mode : Variable
  98. Bit rate : 2 247 kb/s
  99. Channel(s) : 6 channels
  100. Channel layout : C L R Ls Rs LFE
  101. Sampling rate : 48.0 kHz
  102. Frame rate : 93.750 FPS (512 SPF)
  103. Bit depth : 16 bits
  104. Compression mode : Lossless
  105. Stream size : 1.45 GiB (4%)
  106. Title : Dub (Blu-ray)
  107. Language : Russian
  108. Default : No
  109. Forced : No
  110.  
  111. Audio #4
  112. ID : 5
  113. Format : AC-3
  114. Format/Info : Audio Coding 3
  115. Commercial name : Dolby Digital
  116. Codec ID : A_AC3
  117. Duration : 1 h 32 min
  118. Bit rate mode : Constant
  119. Bit rate : 448 kb/s
  120. Channel(s) : 6 channels
  121. Channel layout : L R C LFE Ls Rs
  122. Sampling rate : 48.0 kHz
  123. Frame rate : 31.250 FPS (1536 SPF)
  124. Compression mode : Lossy
  125. Stream size : 297 MiB (1%)
  126. Title : AVO (Ю. Немахов)
  127. Language : Russian
  128. Service kind : Complete Main
  129. Default : No
  130. Forced : No
  131.  
  132. Audio #5
  133. ID : 6
  134. Format : AC-3
  135. Format/Info : Audio Coding 3
  136. Commercial name : Dolby Digital
  137. Codec ID : A_AC3
  138. Duration : 1 h 32 min
  139. Bit rate mode : Constant
  140. Bit rate : 384 kb/s
  141. Channel(s) : 6 channels
  142. Channel layout : L R C LFE Ls Rs
  143. Sampling rate : 48.0 kHz
  144. Frame rate : 31.250 FPS (1536 SPF)
  145. Compression mode : Lossy
  146. Stream size : 254 MiB (1%)
  147. Title : Dub (Blu-ray)
  148. Language : Ukrainian
  149. Service kind : Complete Main
  150. Default : No
  151. Forced : No
  152.  
  153. Audio #6
  154. ID : 7
  155. Format : DTS XLL
  156. Format/Info : Digital Theater Systems
  157. Commercial name : DTS-HD Master Audio
  158. Codec ID : A_DTS
  159. Duration : 1 h 32 min
  160. Bit rate mode : Variable
  161. Bit rate : 5 105 kb/s
  162. Channel(s) : 8 channels
  163. Channel layout : C L R LFE Lb Rb Lss Rss
  164. Sampling rate : 48.0 kHz
  165. Frame rate : 93.750 FPS (512 SPF)
  166. Bit depth : 24 bits
  167. Compression mode : Lossless
  168. Stream size : 3.30 GiB (10%)
  169. Title : Original
  170. Language : English
  171. Default : No
  172. Forced : No
  173.  
  174. Audio #7
  175. ID : 8
  176. Format : AC-3
  177. Format/Info : Audio Coding 3
  178. Commercial name : Dolby Digital
  179. Codec ID : A_AC3
  180. Duration : 1 h 32 min
  181. Bit rate mode : Constant
  182. Bit rate : 224 kb/s
  183. Channel(s) : 2 channels
  184. Channel layout : L R
  185. Sampling rate : 48.0 kHz
  186. Frame rate : 31.250 FPS (1536 SPF)
  187. Compression mode : Lossy
  188. Stream size : 148 MiB (0%)
  189. Title : English commentary
  190. Language : English
  191. Service kind : Complete Main
  192. Default : No
  193. Forced : No
  194.  
  195. Text #1
  196. ID : 9
  197. Format : UTF-8
  198. Codec ID : S_TEXT/UTF8
  199. Codec ID/Info : UTF-8 Plain Text
  200. Duration : 1 h 26 min
  201. Bit rate : 93 b/s
  202. Count of elements : 843
  203. Stream size : 59.0 KiB (0%)
  204. Language : Russian
  205. Default : No
  206. Forced : No
  207.  
  208. Text #2
  209. ID : 10
  210. Format : UTF-8
  211. Codec ID : S_TEXT/UTF8
  212. Codec ID/Info : UTF-8 Plain Text
  213. Duration : 1 h 26 min
  214. Bit rate : 111 b/s
  215. Count of elements : 843
  216. Stream size : 70.4 KiB (0%)
  217. Title : Colored
  218. Language : Russian
  219. Default : No
  220. Forced : No
  221.  
  222. Text #3
  223. ID : 11
  224. Format : UTF-8
  225. Codec ID : S_TEXT/UTF8
  226. Codec ID/Info : UTF-8 Plain Text
  227. Duration : 1 h 26 min
  228. Bit rate : 113 b/s
  229. Count of elements : 876
  230. Stream size : 71.6 KiB (0%)
  231. Title : Colored, SDH
  232. Language : Russian
  233. Default : No
  234. Forced : No
  235.  
  236. Text #4
  237. ID : 12
  238. Format : UTF-8
  239. Codec ID : S_TEXT/UTF8
  240. Codec ID/Info : UTF-8 Plain Text
  241. Duration : 1 h 25 min
  242. Bit rate : 57 b/s
  243. Count of elements : 903
  244. Stream size : 35.9 KiB (0%)
  245. Language : English
  246. Default : Yes
  247. Forced : No
  248.  
  249. Menu
  250. 00:00:00.000 : en:Chapter 01
  251. 00:06:41.484 : en:Chapter 02
  252. 00:10:17.492 : en:Chapter 03
  253. 00:17:21.332 : en:Chapter 04
  254. 00:20:18.676 : en:Chapter 05
  255. 00:24:47.820 : en:Chapter 06
  256. 00:29:43.615 : en:Chapter 07
  257. 00:37:39.340 : en:Chapter 08
  258. 00:44:23.452 : en:Chapter 09
  259. 00:49:37.516 : en:Chapter 10
  260. 00:53:12.231 : en:Chapter 11
  261. 00:58:11.947 : en:Chapter 12
  262. 01:05:33.429 : en:Chapter 13
  263. 01:12:38.771 : en:Chapter 14
  264. 01:18:35.044 : en:Chapter 15
  265. 01:25:38.925 : en:Chapter 16
RAW Paste Data