iMN0

Casino.Royale.2006.Uncut.1080p.Hybrid.BluRay.REMUX.AVC.DTS-HD.MA.5.1-EPSiLON.mkv

Jul 15th, 2021
265
Never
Not a member of Pastebin yet? Sign Up, it unlocks many cool features!
  1. General
  2. Complete name : Casino.Royale.2006.Uncut.1080p.Hybrid.BluRay.REMUX.AVC.DTS-HD.MA.5.1-EPSiLON.mkv
  3. Format : Matroska
  4. Format version : Version 4
  5. File size : 29.5 GiB
  6. Duration : 2 h 24 min
  7. Overall bit rate mode : Variable
  8. Overall bit rate : 29.2 Mb/s
  9. Encoded date : UTC 2020-03-27 20:26:27
  10. Writing application : mkvmerge v44.0.0 ('Domino') 64-bit
  11. Writing library : libebml v1.3.10 + libmatroska v1.5.2
  12. IMDB : tt0381061
  13. TMDB : movie/36557
  14.  
  15. Video
  16. ID : 1
  17. Format : AVC
  18. Format/Info : Advanced Video Codec
  19. Format profile : High@L4.1
  20. Format settings : CABAC / 2 Ref Frames
  21. Format settings, CABAC : Yes
  22. Format settings, Reference frames : 2 frames
  23. Codec ID : V_MPEG4/ISO/AVC
  24. Duration : 2 h 24 min
  25. Bit rate mode : Variable
  26. Bit rate : 24.5 Mb/s
  27. Width : 1 920 pixels
  28. Height : 1 080 pixels
  29. Display aspect ratio : 16:9
  30. Frame rate mode : Constant
  31. Frame rate : 23.976 (24000/1001) FPS
  32. Color space : YUV
  33. Chroma subsampling : 4:2:0
  34. Bit depth : 8 bits
  35. Scan type : Progressive
  36. Bits/(Pixel*Frame) : 0.492
  37. Stream size : 24.7 GiB (84%)
  38. Title : MPEG-4 AVC Video / 24454 kbps / 1080p / 23.976 fps / 16:9 / High Profile 4.1
  39. Language : English
  40. Default : Yes
  41. Forced : No
  42.  
  43. Audio #1
  44. ID : 2
  45. Format : DTS XLL
  46. Format/Info : Digital Theater Systems
  47. Commercial name : DTS-HD Master Audio
  48. Codec ID : A_DTS
  49. Duration : 2 h 24 min
  50. Bit rate mode : Variable
  51. Bit rate : 3 887 kb/s
  52. Channel(s) : 6 channels
  53. Channel layout : C L R Ls Rs LFE
  54. Sampling rate : 48.0 kHz
  55. Frame rate : 93.750 FPS (512 SPF)
  56. Bit depth : 24 bits
  57. Compression mode : Lossless
  58. Delay relative to video : 292 ms
  59. Stream size : 3.92 GiB (13%)
  60. Title : DTS-HD Master Audio / 5.1 / 48 kHz / 3887 kbps / 24-bit
  61. Language : English
  62. Default : Yes
  63. Forced : No
  64.  
  65. Audio #2
  66. ID : 3
  67. Format : AC-3
  68. Format/Info : Audio Coding 3
  69. Commercial name : Dolby Digital
  70. Codec ID : A_AC3
  71. Duration : 2 h 24 min
  72. Bit rate mode : Constant
  73. Bit rate : 224 kb/s
  74. Channel(s) : 2 channels
  75. Channel layout : L R
  76. Sampling rate : 48.0 kHz
  77. Frame rate : 31.250 FPS (1536 SPF)
  78. Compression mode : Lossy
  79. Delay relative to video : 292 ms
  80. Stream size : 232 MiB (1%)
  81. Title : Commentary by Crew
  82. Language : English
  83. Service kind : Commentary
  84. Default : No
  85. Forced : No
  86.  
  87. Text #1
  88. ID : 4
  89. Format : PGS
  90. Codec ID : S_HDMV/PGS
  91. Codec ID/Info : Picture based subtitle format used on BDs/HD-DVDs
  92. Duration : 2 h 19 min
  93. Bit rate : 32.2 kb/s
  94. Count of elements : 2082
  95. Stream size : 32.0 MiB (0%)
  96. Language : English
  97. Default : No
  98. Forced : No
  99.  
  100. Text #2
  101. ID : 5
  102. Format : PGS
  103. Codec ID : S_HDMV/PGS
  104. Codec ID/Info : Picture based subtitle format used on BDs/HD-DVDs
  105. Duration : 2 h 22 min
  106. Bit rate : 24.2 kb/s
  107. Count of elements : 2496
  108. Stream size : 24.6 MiB (0%)
  109. Title : SDH
  110. Language : English
  111. Default : No
  112. Forced : No
  113.  
  114. Text #3
  115. ID : 6
  116. Format : PGS
  117. Codec ID : S_HDMV/PGS
  118. Codec ID/Info : Picture based subtitle format used on BDs/HD-DVDs
  119. Duration : 2 h 19 min
  120. Bit rate : 28.3 kb/s
  121. Count of elements : 2176
  122. Stream size : 28.3 MiB (0%)
  123. Language : Bulgarian
  124. Default : No
  125. Forced : No
  126.  
  127. Text #4
  128. ID : 7
  129. Format : PGS
  130. Codec ID : S_HDMV/PGS
  131. Codec ID/Info : Picture based subtitle format used on BDs/HD-DVDs
  132. Duration : 2 h 23 min
  133. Bit rate : 15.5 kb/s
  134. Count of elements : 2008
  135. Stream size : 15.9 MiB (0%)
  136. Title : Mandarin traditional (SDH)
  137. Language : Chinese
  138. Default : No
  139. Forced : No
  140.  
  141. Text #5
  142. ID : 8
  143. Format : PGS
  144. Codec ID : S_HDMV/PGS
  145. Codec ID/Info : Picture based subtitle format used on BDs/HD-DVDs
  146. Duration : 2 h 19 min
  147. Bit rate : 27.9 kb/s
  148. Count of elements : 2138
  149. Stream size : 27.9 MiB (0%)
  150. Language : Croatian
  151. Default : No
  152. Forced : No
  153.  
  154. Text #6
  155. ID : 9
  156. Format : PGS
  157. Codec ID : S_HDMV/PGS
  158. Codec ID/Info : Picture based subtitle format used on BDs/HD-DVDs
  159. Duration : 2 h 19 min
  160. Bit rate : 28.9 kb/s
  161. Count of elements : 2066
  162. Stream size : 28.9 MiB (0%)
  163. Language : Czech
  164. Default : No
  165. Forced : No
  166.  
  167. Text #7
  168. ID : 10
  169. Format : PGS
  170. Codec ID : S_HDMV/PGS
  171. Codec ID/Info : Picture based subtitle format used on BDs/HD-DVDs
  172. Duration : 2 h 23 min
  173. Bit rate : 27.8 kb/s
  174. Count of elements : 1702
  175. Stream size : 28.6 MiB (0%)
  176. Language : Danish
  177. Default : No
  178. Forced : No
  179.  
  180. Text #8
  181. ID : 11
  182. Format : PGS
  183. Codec ID : S_HDMV/PGS
  184. Codec ID/Info : Picture based subtitle format used on BDs/HD-DVDs
  185. Duration : 2 h 19 min
  186. Bit rate : 30.0 kb/s
  187. Count of elements : 1946
  188. Stream size : 30.0 MiB (0%)
  189. Language : Dutch
  190. Default : No
  191. Forced : No
  192.  
  193. Text #9
  194. ID : 12
  195. Format : PGS
  196. Codec ID : S_HDMV/PGS
  197. Codec ID/Info : Picture based subtitle format used on BDs/HD-DVDs
  198. Duration : 2 h 19 min
  199. Bit rate : 26.4 kb/s
  200. Count of elements : 1892
  201. Stream size : 26.4 MiB (0%)
  202. Language : Finnish
  203. Default : No
  204. Forced : No
  205.  
  206. Text #10
  207. ID : 13
  208. Format : PGS
  209. Codec ID : S_HDMV/PGS
  210. Codec ID/Info : Picture based subtitle format used on BDs/HD-DVDs
  211. Duration : 2 h 23 min
  212. Bit rate : 21.0 kb/s
  213. Count of elements : 1798
  214. Stream size : 21.6 MiB (0%)
  215. Language : German
  216. Default : No
  217. Forced : No
  218.  
  219. Text #11
  220. ID : 14
  221. Format : PGS
  222. Codec ID : S_HDMV/PGS
  223. Codec ID/Info : Picture based subtitle format used on BDs/HD-DVDs
  224. Duration : 2 h 19 min
  225. Bit rate : 29.3 kb/s
  226. Count of elements : 1976
  227. Stream size : 29.3 MiB (0%)
  228. Language : grc
  229. Default : No
  230. Forced : No
  231.  
  232. Text #12
  233. ID : 15
  234. Format : PGS
  235. Codec ID : S_HDMV/PGS
  236. Codec ID/Info : Picture based subtitle format used on BDs/HD-DVDs
  237. Duration : 2 h 19 min
  238. Bit rate : 25.1 kb/s
  239. Count of elements : 2032
  240. Stream size : 25.1 MiB (0%)
  241. Language : Hebrew
  242. Default : No
  243. Forced : No
  244.  
  245. Text #13
  246. ID : 16
  247. Format : PGS
  248. Codec ID : S_HDMV/PGS
  249. Codec ID/Info : Picture based subtitle format used on BDs/HD-DVDs
  250. Duration : 2 h 19 min
  251. Bit rate : 31.2 kb/s
  252. Count of elements : 2184
  253. Stream size : 31.1 MiB (0%)
  254. Language : Hindi
  255. Default : No
  256. Forced : No
  257.  
  258. Text #14
  259. ID : 17
  260. Format : PGS
  261. Codec ID : S_HDMV/PGS
  262. Codec ID/Info : Picture based subtitle format used on BDs/HD-DVDs
  263. Duration : 2 h 19 min
  264. Bit rate : 24.7 kb/s
  265. Count of elements : 1948
  266. Stream size : 24.6 MiB (0%)
  267. Language : Hungarian
  268. Default : No
  269. Forced : No
  270.  
  271. Text #15
  272. ID : 18
  273. Format : PGS
  274. Codec ID : S_HDMV/PGS
  275. Codec ID/Info : Picture based subtitle format used on BDs/HD-DVDs
  276. Duration : 2 h 19 min
  277. Bit rate : 29.1 kb/s
  278. Count of elements : 1862
  279. Stream size : 29.1 MiB (0%)
  280. Language : Icelandic
  281. Default : No
  282. Forced : No
  283.  
  284. Text #16
  285. ID : 19
  286. Format : PGS
  287. Codec ID : S_HDMV/PGS
  288. Codec ID/Info : Picture based subtitle format used on BDs/HD-DVDs
  289. Duration : 2 h 23 min
  290. Bit rate : 24.4 kb/s
  291. Count of elements : 2134
  292. Stream size : 25.1 MiB (0%)
  293. Language : Italian
  294. Default : No
  295. Forced : No
  296.  
  297. Text #17
  298. ID : 20
  299. Format : PGS
  300. Codec ID : S_HDMV/PGS
  301. Codec ID/Info : Picture based subtitle format used on BDs/HD-DVDs
  302. Duration : 2 h 23 min
  303. Bit rate : 15.8 kb/s
  304. Count of elements : 1906
  305. Stream size : 16.3 MiB (0%)
  306. Language : Japanese
  307. Default : No
  308. Forced : No
  309.  
  310. Text #18
  311. ID : 21
  312. Format : PGS
  313. Codec ID : S_HDMV/PGS
  314. Codec ID/Info : Picture based subtitle format used on BDs/HD-DVDs
  315. Duration : 2 h 23 min
  316. Bit rate : 11.8 kb/s
  317. Count of elements : 2004
  318. Stream size : 12.2 MiB (0%)
  319. Language : Korean
  320. Default : No
  321. Forced : No
  322.  
  323. Text #19
  324. ID : 22
  325. Format : PGS
  326. Codec ID : S_HDMV/PGS
  327. Codec ID/Info : Picture based subtitle format used on BDs/HD-DVDs
  328. Duration : 2 h 19 min
  329. Bit rate : 24.2 kb/s
  330. Count of elements : 1854
  331. Stream size : 24.2 MiB (0%)
  332. Language : Norwegian
  333. Default : No
  334. Forced : No
  335.  
  336. Text #20
  337. ID : 23
  338. Format : PGS
  339. Codec ID : S_HDMV/PGS
  340. Codec ID/Info : Picture based subtitle format used on BDs/HD-DVDs
  341. Duration : 2 h 23 min
  342. Bit rate : 24.3 kb/s
  343. Count of elements : 1962
  344. Stream size : 25.0 MiB (0%)
  345. Language : Polish
  346. Default : No
  347. Forced : No
  348.  
  349. Text #21
  350. ID : 24
  351. Format : PGS
  352. Codec ID : S_HDMV/PGS
  353. Codec ID/Info : Picture based subtitle format used on BDs/HD-DVDs
  354. Duration : 2 h 23 min
  355. Bit rate : 23.2 kb/s
  356. Count of elements : 1996
  357. Stream size : 23.9 MiB (0%)
  358. Language : Portuguese
  359. Default : No
  360. Forced : No
  361.  
  362. Text #22
  363. ID : 25
  364. Format : PGS
  365. Codec ID : S_HDMV/PGS
  366. Codec ID/Info : Picture based subtitle format used on BDs/HD-DVDs
  367. Duration : 2 h 19 min
  368. Bit rate : 32.8 kb/s
  369. Count of elements : 2066
  370. Stream size : 32.7 MiB (0%)
  371. Language : Romanian
  372. Default : No
  373. Forced : No
  374.  
  375. Text #23
  376. ID : 26
  377. Format : PGS
  378. Codec ID : S_HDMV/PGS
  379. Codec ID/Info : Picture based subtitle format used on BDs/HD-DVDs
  380. Duration : 2 h 19 min
  381. Bit rate : 25.6 kb/s
  382. Count of elements : 2156
  383. Stream size : 25.6 MiB (0%)
  384. Language : Slovenian
  385. Default : No
  386. Forced : No
  387.  
  388. Text #24
  389. ID : 27
  390. Format : PGS
  391. Codec ID : S_HDMV/PGS
  392. Codec ID/Info : Picture based subtitle format used on BDs/HD-DVDs
  393. Duration : 2 h 23 min
  394. Bit rate : 21.9 kb/s
  395. Count of elements : 1972
  396. Stream size : 22.5 MiB (0%)
  397. Title : Castilian
  398. Language : Spanish
  399. Default : No
  400. Forced : No
  401.  
  402. Text #25
  403. ID : 28
  404. Format : PGS
  405. Codec ID : S_HDMV/PGS
  406. Codec ID/Info : Picture based subtitle format used on BDs/HD-DVDs
  407. Duration : 2 h 23 min
  408. Bit rate : 22.1 kb/s
  409. Count of elements : 2100
  410. Stream size : 22.7 MiB (0%)
  411. Title : Latin American
  412. Language : Spanish
  413. Default : No
  414. Forced : No
  415.  
  416. Text #26
  417. ID : 29
  418. Format : PGS
  419. Codec ID : S_HDMV/PGS
  420. Codec ID/Info : Picture based subtitle format used on BDs/HD-DVDs
  421. Duration : 2 h 19 min
  422. Bit rate : 24.8 kb/s
  423. Count of elements : 1394
  424. Stream size : 24.8 MiB (0%)
  425. Language : Swedish
  426. Default : No
  427. Forced : No
  428.  
  429. Text #27
  430. ID : 30
  431. Format : PGS
  432. Codec ID : S_HDMV/PGS
  433. Codec ID/Info : Picture based subtitle format used on BDs/HD-DVDs
  434. Duration : 2 h 19 min
  435. Bit rate : 31.7 kb/s
  436. Count of elements : 2008
  437. Stream size : 31.7 MiB (0%)
  438. Language : Turkish
  439. Default : No
  440. Forced : No
  441.  
  442. Menu
  443. 00:00:00.000 : en:Chapter 1
  444. 00:09:38.244 : en:Chapter 2
  445. 00:19:31.462 : en:Chapter 3
  446. 00:25:36.285 : en:Chapter 4
  447. 00:35:19.200 : en:Chapter 5
  448. 00:39:59.814 : en:Chapter 6
  449. 00:45:22.720 : en:Chapter 7
  450. 00:57:51.343 : en:Chapter 8
  451. 01:07:22.580 : en:Chapter 9
  452. 01:17:12.336 : en:Chapter 10
  453. 01:30:06.359 : en:Chapter 11
  454. 01:38:41.457 : en:Chapter 12
  455. 01:43:29.912 : en:Chapter 13
  456. 01:54:03.420 : en:Chapter 14
  457. 02:05:45.663 : en:Chapter 15
  458. 02:13:19.992 : en:Chapter 16
RAW Paste Data