SHARE
TWEET

Little BluRay 720p

dirtyharrys Jun 26th, 2019 (edited) 94 Never
Not a member of Pastebin yet? Sign Up, it unlocks many cool features!
  1. General
  2. Unique ID                   : 239863639018445337480444794527964081494 (0xB4740E767DBBEC93026D0C4D16762D56)
  3. Complete name               : E:\QlJSTGl0dGxl.mkv
  4. Format                      : Matroska
  5. Format version              : Version 4
  6. File size                   : 1.83 GiB
  7. Duration                    : 1 h 48 min
  8. Overall bit rate            : 2 412 kb/s
  9. Movie name                  : Little BR-RIP / Little BR-RIP
  10. Encoded date                : UTC 2019-07-08 09:07:22
  11. Writing application         : mkvmerge v30.1.0 ('Forever And More') 32-bit
  12. Writing library             : libebml v1.3.6 + libmatroska v1.4.9
  13. Copyright                   : Movies HDs 2019
  14. ARTIST                      : HarshLearner
  15.  
  16. Video
  17. ID                          : 1
  18. Format                      : AVC
  19. Format/Info                 : Advanced Video Codec
  20. Format profile              : High@L4.1
  21. Format settings             : CABAC / 4 Ref Frames
  22. Format settings, CABAC      : Yes
  23. Format settings, ReFrames   : 4 frames
  24. Codec ID                    : V_MPEG4/ISO/AVC
  25. Duration                    : 1 h 48 min
  26. Bit rate                    : 1 500 kb/s
  27. Width                       : 1 280 pixels
  28. Height                      : 694 pixels
  29. Display aspect ratio        : 1.85:1
  30. Frame rate mode             : Constant
  31. Frame rate                  : 23.976 (23976/1000) FPS
  32. Color space                 : YUV
  33. Chroma subsampling          : 4:2:0
  34. Bit depth                   : 8 bits
  35. Scan type                   : Progressive
  36. Bits/(Pixel*Frame)          : 0.070
  37. Stream size                 : 1.14 GiB (62%)
  38. Title                       : Little
  39. Writing library             : x264 core 152 r2851M ba24899
  40. Default                     : Yes
  41. Forced                      : No
  42.  
  43. Audio #1
  44. ID                          : 2
  45. Format                      : AC-3
  46. Format/Info                 : Audio Coding 3
  47. Commercial name             : Dolby Digital
  48. Codec ID                    : A_AC3
  49. Duration                    : 1 h 48 min
  50. Bit rate mode               : Constant
  51. Bit rate                    : 448 kb/s
  52. Channel(s)                  : 6 channels
  53. Channel layout              : L R C LFE Ls Rs
  54. Sampling rate               : 48.0 kHz
  55. Frame rate                  : 31.250 FPS (1536 SPF)
  56. Bit depth                   : 16 bits
  57. Compression mode            : Lossy
  58. Stream size                 : 349 MiB (19%)
  59. Language                    : English
  60. Service kind                : Complete Main
  61. Default                     : No
  62. Forced                      : No
  63.  
  64. Audio #2
  65. ID                          : 3
  66. Format                      : AC-3
  67. Format/Info                 : Audio Coding 3
  68. Commercial name             : Dolby Digital
  69. Codec ID                    : A_AC3
  70. Duration                    : 1 h 48 min
  71. Bit rate mode               : Constant
  72. Bit rate                    : 448 kb/s
  73. Channel(s)                  : 6 channels
  74. Channel layout              : L R C LFE Ls Rs
  75. Sampling rate               : 48.0 kHz
  76. Frame rate                  : 31.250 FPS (1536 SPF)
  77. Bit depth                   : 16 bits
  78. Compression mode            : Lossy
  79. Stream size                 : 349 MiB (19%)
  80. Language                    : Spanish
  81. Service kind                : Complete Main
  82. Default                     : Yes
  83. Forced                      : Yes
  84.  
  85. Text #1
  86. ID                          : 4
  87. Format                      : PGS
  88. Muxing mode                 : zlib
  89. Codec ID                    : S_HDMV/PGS
  90. Codec ID/Info               : Picture based subtitle format used on BDs/HD-DVDs
  91. Duration                    : 1 h 47 min
  92. Bit rate                    : 44.8 kb/s
  93. Count of elements           : 3924
  94. Stream size                 : 34.5 MiB (2%)
  95. Language                    : Spanish
  96. Default                     : No
  97. Forced                      : No
  98.  
  99. Text #2
  100. ID                          : 5
  101. Format                      : PGS
  102. Muxing mode                 : zlib
  103. Codec ID                    : S_HDMV/PGS
  104. Codec ID/Info               : Picture based subtitle format used on BDs/HD-DVDs
  105. Duration                    : 1 h 44 min
  106. Bit rate                    : 1 255 b/s
  107. Count of elements           : 126
  108. Stream size                 : 956 KiB (0%)
  109. Language                    : Spanish
  110. Default                     : No
  111. Forced                      : No
  112.  
  113. Text #3
  114. ID                          : 6
  115. Format                      : UTF-8
  116. Codec ID                    : S_TEXT/UTF8
  117. Codec ID/Info               : UTF-8 Plain Text
  118. Duration                    : 1 h 42 min
  119. Bit rate                    : 76 b/s
  120. Count of elements           : 1967
  121. Stream size                 : 57.1 KiB (0%)
  122. Language                    : English
  123. Default                     : No
  124. Forced                      : No
  125.  
  126. Text #4
  127. ID                          : 7
  128. Format                      : UTF-8
  129. Codec ID                    : S_TEXT/UTF8
  130. Codec ID/Info               : UTF-8 Plain Text
  131. Duration                    : 1 h 42 min
  132. Bit rate                    : 76 b/s
  133. Count of elements           : 1957
  134. Stream size                 : 57.1 KiB (0%)
  135. Language                    : Spanish
  136. Default                     : Yes
  137. Forced                      : Yes
  138.  
  139. Text #5
  140. ID                          : 8
  141. Format                      : UTF-8
  142. Codec ID                    : S_TEXT/UTF8
  143. Codec ID/Info               : UTF-8 Plain Text
  144. Duration                    : 1 h 34 min
  145. Bit rate                    : 2 b/s
  146. Count of elements           : 61
  147. Stream size                 : 1.57 KiB (0%)
  148. Language                    : Spanish
  149. Default                     : No
  150. Forced                      : No
  151.  
  152. Menu
  153. 00:00:00.000                : en:1
  154. 00:03:26.790                : en:2
  155. 00:09:28.693                : en:3
  156. 00:15:14.914                : en:4
  157. 00:23:53.182                : en:5
  158. 00:28:12.065                : en:6
  159. 00:32:43.376                : en:7
  160. 00:38:16.959                : en:8
  161. 00:41:51.964                : en:9
  162. 00:46:23.902                : en:10
  163. 00:53:02.342                : en:11
  164. 00:58:12.318                : en:12
  165. 01:03:53.200                : en:13
  166. 01:08:47.577                : en:14
  167. 01:12:20.373                : en:15
  168. 01:20:46.211                : en:16
  169. 01:29:22.351                : en:17
  170. 01:34:24.945                : en:18
  171. 01:39:20.240                : en:19
  172. 01:43:12.471                : en:20
RAW Paste Data
We use cookies for various purposes including analytics. By continuing to use Pastebin, you agree to our use of cookies as described in the Cookies Policy. OK, I Understand
 
Top