AlemaoPS

Untitled

Aug 26th, 2019
107
Never
Not a member of Pastebin yet? Sign Up, it unlocks many cool features!
  1. General
  2. Complete name : D:\\\BDMV\PLAYLIST\00027.mpls
  3. Format : Blu-ray Playlist
  4. File size : 860 Bytes
  5. Duration : 2 h 0 min
  6. Overall bit rate mode : Variable
  7. Overall bit rate : 1 b/s
  8.  
  9. Video
  10. ID : 4113 (0x1011)
  11. Menu ID : 1 (0x1)
  12. Format : AVC
  13. Format/Info : Advanced Video Codec
  14. Format profile : High@L4.1
  15. Format settings, CABAC : Yes
  16. Format settings, RefFrames : 3 frames
  17. Format settings, GOP : M=3, N=15
  18. Codec ID : 27
  19. Duration : 2 h 0 min
  20. Bit rate mode : Variable
  21. Bit rate : 19.0 Mb/s
  22. Nominal bit rate : 15.9 Mb/s
  23. Maximum bit rate : 35.0 Mb/s
  24. Width : 1 920 pixels
  25. Height : 1 080 pixels
  26. Display aspect ratio : 16:9
  27. Frame rate : 23.976 (24000/1001) FPS
  28. Color space : YUV
  29. Chroma subsampling : 4:2:0
  30. Bit depth : 8 bits
  31. Scan type : Progressive
  32. Bits/(Pixel*Frame) : 0.382
  33. Stream size : 16.0 GiB
  34. Writing library : x264 core 148
  35. Encoding settings : cabac=1 / ref=3 / deblock=1:-1:-1 / analyse=0x3:0x112 / me=dia / subme=1 / psy=1 / psy_rd=1.00:0.00 / mixed_ref=0 / me_range=12 / chroma_me=1 / trellis=1 / 8x8dct=1 / cqm=0 / deadzone=21,11 / fast_pskip=0 / chroma_qp_offset=0 / threads=8 / lookahead_threads=4 / sliced_threads=0 / nr=0 / decimate=1 / interlaced=0 / bluray_compat=0 / constrained_intra=0 / bframes=4 / b_pyramid=0 / b_adapt=2 / b_bias=0 / direct=3 / weightb=1 / open_gop=0 / weightp=0 / keyint=1000 / keyint_min=2 / scenecut=40 / intra_refresh=0 / rc_lookahead=2 / rc=abr / mbtree=0 / bitrate=15944 / ratetol=1.0 / qcomp=0.50 / qpmin=0 / qpmax=69 / qpstep=4 / vbv_maxrate=35000 / vbv_bufsize=30000 / nal_hrd=vbr / filler=0 / ip_ratio=1.10 / pb_ratio=1.10 / aq=1:1.00
  36. Color range : Limited
  37. Color primaries : BT.709
  38. Transfer characteristics : BT.709
  39. Matrix coefficients : BT.709
  40. format_identifier : HDMV
  41. Source : 00112.m2ts
  42.  
  43. Audio #1
  44. ID : 4352 (0x1100)
  45. Menu ID : 1 (0x1)
  46. Format : TrueHD / AC-3
  47. Format settings, Endianness : Big
  48. Muxing mode : Stream extension
  49. Codec ID : 131
  50. Duration : 2 h 0 min
  51. Bit rate mode : Variable / Constant
  52. Bit rate : 448 kb/s
  53. Maximum bit rate : 3 366 kb/s
  54. Channel(s) : 6 channels
  55. Channel positions : Front: L C R, Side: L R, LFE
  56. Sampling rate : 48.0 kHz
  57. Frame rate : 31.250 FPS (1536 SPF)
  58. Bit depth : 16 bits
  59. Compression mode : Lossless
  60. Stream size : 387 MiB
  61. Language : English
  62. Service kind : Complete Main
  63. bsid : 8
  64. dialnorm : -30
  65. dialnorm : -30 dB
  66. compr : -0.28
  67. compr : -0.28 dB
  68. acmod : 7
  69. lfeon : 1
  70. dialnorm_Average : -30
  71. dialnorm_Average : -30 dB
  72. dialnorm_Minimum : -30
  73. dialnorm_Minimum : -30 dB
  74. dialnorm_Maximum : -30
  75. dialnorm_Maximum : -30 dB
  76. dialnorm_Count : 1255
  77. compr_Average : 3.45
  78. compr_Average : 3.45 dB
  79. compr_Minimum : 0.53
  80. compr_Minimum : 0.53 dB
  81. compr_Maximum : 6.02
  82. compr_Maximum : 6.02 dB
  83. compr_Count : 1238
  84. dynrng_Average : 3.40
  85. dynrng_Average : 3.40 dB
  86. dynrng_Minimum : 0.00
  87. dynrng_Minimum : 0.00 dB
  88. dynrng_Maximum : 6.02
  89. dynrng_Maximum : 6.02 dB
  90. dynrng_Count : 1255
  91. format_identifier : AC-3
  92. Source : 00112.m2ts
  93.  
  94. Audio #2
  95. ID : 4353 (0x1101)
  96. Menu ID : 1 (0x1)
  97. Format : AC-3
  98. Format/Info : Audio Coding 3
  99. Format settings, Endianness : Big
  100. Codec ID : 129
  101. Duration : 2 h 0 min
  102. Bit rate mode : Constant
  103. Bit rate : 448 kb/s
  104. Channel(s) : 6 channels
  105. Channel positions : Front: L C R, Side: L R, LFE
  106. Sampling rate : 48.0 kHz
  107. Frame rate : 31.250 FPS (1536 SPF)
  108. Bit depth : 16 bits
  109. Compression mode : Lossy
  110. Stream size : 387 MiB
  111. Language : Spanish
  112. Service kind : Complete Main
  113. bsid : 8
  114. dialnorm : -29
  115. dialnorm : -29 dB
  116. compr : -0.28
  117. compr : -0.28 dB
  118. acmod : 7
  119. lfeon : 1
  120. dialnorm_Average : -29
  121. dialnorm_Average : -29 dB
  122. dialnorm_Minimum : -29
  123. dialnorm_Minimum : -29 dB
  124. dialnorm_Maximum : -29
  125. dialnorm_Maximum : -29 dB
  126. dialnorm_Count : 1255
  127. compr_Average : 3.87
  128. compr_Average : 3.87 dB
  129. compr_Minimum : 0.53
  130. compr_Minimum : 0.53 dB
  131. compr_Maximum : 6.02
  132. compr_Maximum : 6.02 dB
  133. compr_Count : 1251
  134. dynrng_Average : 3.85
  135. dynrng_Average : 3.85 dB
  136. dynrng_Minimum : 0.00
  137. dynrng_Minimum : 0.00 dB
  138. dynrng_Maximum : 6.02
  139. dynrng_Maximum : 6.02 dB
  140. dynrng_Count : 1255
  141. format_identifier : AC-3
  142. Source : 00112.m2ts
  143.  
  144. Audio #3
  145. ID : 4354 (0x1102)
  146. Menu ID : 1 (0x1)
  147. Format : AC-3
  148. Format/Info : Audio Coding 3
  149. Format settings, Endianness : Big
  150. Codec ID : 129
  151. Duration : 2 h 0 min
  152. Bit rate mode : Constant
  153. Bit rate : 448 kb/s
  154. Channel(s) : 6 channels
  155. Channel positions : Front: L C R, Side: L R, LFE
  156. Sampling rate : 48.0 kHz
  157. Frame rate : 31.250 FPS (1536 SPF)
  158. Bit depth : 16 bits
  159. Compression mode : Lossy
  160. Stream size : 387 MiB
  161. Language : Portuguese
  162. Service kind : Complete Main
  163. bsid : 8
  164. dialnorm : -29
  165. dialnorm : -29 dB
  166. compr : -0.28
  167. compr : -0.28 dB
  168. acmod : 7
  169. lfeon : 1
  170. dialnorm_Average : -29
  171. dialnorm_Average : -29 dB
  172. dialnorm_Minimum : -29
  173. dialnorm_Minimum : -29 dB
  174. dialnorm_Maximum : -29
  175. dialnorm_Maximum : -29 dB
  176. dialnorm_Count : 1255
  177. compr_Average : 3.55
  178. compr_Average : 3.55 dB
  179. compr_Minimum : 0.53
  180. compr_Minimum : 0.53 dB
  181. compr_Maximum : 6.02
  182. compr_Maximum : 6.02 dB
  183. compr_Count : 1248
  184. dynrng_Average : 3.52
  185. dynrng_Average : 3.52 dB
  186. dynrng_Minimum : 0.00
  187. dynrng_Minimum : 0.00 dB
  188. dynrng_Maximum : 6.02
  189. dynrng_Maximum : 6.02 dB
  190. dynrng_Count : 1255
  191. format_identifier : AC-3
  192. Source : 00112.m2ts
  193.  
  194. Audio #4
  195. ID : 4355 (0x1103)
  196. Menu ID : 1 (0x1)
  197. Format : AC-3
  198. Format/Info : Audio Coding 3
  199. Format settings, Endianness : Big
  200. Codec ID : 129
  201. Duration : 2 h 0 min
  202. Bit rate mode : Constant
  203. Bit rate : 384 kb/s
  204. Channel(s) : 6 channels
  205. Channel positions : Front: L C R, Side: L R, LFE
  206. Sampling rate : 48.0 kHz
  207. Frame rate : 31.250 FPS (1536 SPF)
  208. Bit depth : 16 bits
  209. Compression mode : Lossy
  210. Stream size : 332 MiB
  211. Language : Czech
  212. Service kind : Complete Main
  213. bsid : 8
  214. dialnorm : -28
  215. dialnorm : -28 dB
  216. compr : -0.28
  217. compr : -0.28 dB
  218. acmod : 7
  219. lfeon : 1
  220. dialnorm_Average : -28
  221. dialnorm_Average : -28 dB
  222. dialnorm_Minimum : -28
  223. dialnorm_Minimum : -28 dB
  224. dialnorm_Maximum : -28
  225. dialnorm_Maximum : -28 dB
  226. dialnorm_Count : 1255
  227. compr_Average : 4.40
  228. compr_Average : 4.40 dB
  229. compr_Minimum : 0.53
  230. compr_Minimum : 0.53 dB
  231. compr_Maximum : 6.02
  232. compr_Maximum : 6.02 dB
  233. compr_Count : 1251
  234. dynrng_Average : 4.35
  235. dynrng_Average : 4.35 dB
  236. dynrng_Minimum : 0.00
  237. dynrng_Minimum : 0.00 dB
  238. dynrng_Maximum : 6.02
  239. dynrng_Maximum : 6.02 dB
  240. dynrng_Count : 1255
  241. format_identifier : AC-3
  242. Source : 00112.m2ts
  243.  
  244. Audio #5
  245. ID : 4356 (0x1104)
  246. Menu ID : 1 (0x1)
  247. Format : AC-3
  248. Format/Info : Audio Coding 3
  249. Format settings, Endianness : Big
  250. Codec ID : 129
  251. Duration : 2 h 0 min
  252. Bit rate mode : Constant
  253. Bit rate : 384 kb/s
  254. Channel(s) : 6 channels
  255. Channel positions : Front: L C R, Side: L R, LFE
  256. Sampling rate : 48.0 kHz
  257. Frame rate : 31.250 FPS (1536 SPF)
  258. Bit depth : 16 bits
  259. Compression mode : Lossy
  260. Stream size : 332 MiB
  261. Language : Hungarian
  262. Service kind : Complete Main
  263. bsid : 8
  264. dialnorm : -26
  265. dialnorm : -26 dB
  266. compr : -0.28
  267. compr : -0.28 dB
  268. acmod : 7
  269. lfeon : 1
  270. dialnorm_Average : -26
  271. dialnorm_Average : -26 dB
  272. dialnorm_Minimum : -26
  273. dialnorm_Minimum : -26 dB
  274. dialnorm_Maximum : -26
  275. dialnorm_Maximum : -26 dB
  276. dialnorm_Count : 1255
  277. compr_Average : 4.46
  278. compr_Average : 4.46 dB
  279. compr_Minimum : 0.53
  280. compr_Minimum : 0.53 dB
  281. compr_Maximum : 6.02
  282. compr_Maximum : 6.02 dB
  283. compr_Count : 1251
  284. dynrng_Average : 4.40
  285. dynrng_Average : 4.40 dB
  286. dynrng_Minimum : 0.00
  287. dynrng_Minimum : 0.00 dB
  288. dynrng_Maximum : 6.02
  289. dynrng_Maximum : 6.02 dB
  290. dynrng_Count : 1255
  291. format_identifier : AC-3
  292. Source : 00112.m2ts
  293.  
  294. Audio #6
  295. ID : 4357 (0x1105)
  296. Menu ID : 1 (0x1)
  297. Format : AC-3
  298. Format/Info : Audio Coding 3
  299. Format settings, Endianness : Big
  300. Codec ID : 129
  301. Duration : 2 h 0 min
  302. Bit rate mode : Constant
  303. Bit rate : 448 kb/s
  304. Channel(s) : 6 channels
  305. Channel positions : Front: L C R, Side: L R, LFE
  306. Sampling rate : 48.0 kHz
  307. Frame rate : 31.250 FPS (1536 SPF)
  308. Bit depth : 16 bits
  309. Compression mode : Lossy
  310. Stream size : 387 MiB
  311. Language : Russian
  312. Service kind : Complete Main
  313. bsid : 8
  314. dialnorm : -31
  315. dialnorm : -31 dB
  316. compr : -0.28
  317. compr : -0.28 dB
  318. acmod : 7
  319. lfeon : 1
  320. dialnorm_Average : -31
  321. dialnorm_Average : -31 dB
  322. dialnorm_Minimum : -31
  323. dialnorm_Minimum : -31 dB
  324. dialnorm_Maximum : -31
  325. dialnorm_Maximum : -31 dB
  326. dialnorm_Count : 1255
  327. compr_Average : 3.48
  328. compr_Average : 3.48 dB
  329. compr_Minimum : 0.53
  330. compr_Minimum : 0.53 dB
  331. compr_Maximum : 6.02
  332. compr_Maximum : 6.02 dB
  333. compr_Count : 1240
  334. dynrng_Average : 3.43
  335. dynrng_Average : 3.43 dB
  336. dynrng_Minimum : 0.00
  337. dynrng_Minimum : 0.00 dB
  338. dynrng_Maximum : 6.02
  339. dynrng_Maximum : 6.02 dB
  340. dynrng_Count : 1255
  341. format_identifier : AC-3
  342. Source : 00112.m2ts
  343.  
  344. Audio #7
  345. ID : 4358 (0x1106)
  346. Menu ID : 1 (0x1)
  347. Format : AC-3
  348. Format/Info : Audio Coding 3
  349. Format settings, Endianness : Big
  350. Codec ID : 129
  351. Duration : 2 h 0 min
  352. Bit rate mode : Constant
  353. Bit rate : 448 kb/s
  354. Channel(s) : 6 channels
  355. Channel positions : Front: L C R, Side: L R, LFE
  356. Sampling rate : 48.0 kHz
  357. Frame rate : 31.250 FPS (1536 SPF)
  358. Bit depth : 16 bits
  359. Compression mode : Lossy
  360. Stream size : 387 MiB
  361. Language : Thai
  362. Service kind : Complete Main
  363. bsid : 8
  364. dialnorm : -29
  365. dialnorm : -29 dB
  366. compr : -0.28
  367. compr : -0.28 dB
  368. acmod : 7
  369. lfeon : 1
  370. dialnorm_Average : -29
  371. dialnorm_Average : -29 dB
  372. dialnorm_Minimum : -29
  373. dialnorm_Minimum : -29 dB
  374. dialnorm_Maximum : -29
  375. dialnorm_Maximum : -29 dB
  376. dialnorm_Count : 1255
  377. compr_Average : 3.68
  378. compr_Average : 3.68 dB
  379. compr_Minimum : 0.53
  380. compr_Minimum : 0.53 dB
  381. compr_Maximum : 6.02
  382. compr_Maximum : 6.02 dB
  383. compr_Count : 1250
  384. dynrng_Average : 3.63
  385. dynrng_Average : 3.63 dB
  386. dynrng_Minimum : 0.00
  387. dynrng_Minimum : 0.00 dB
  388. dynrng_Maximum : 6.02
  389. dynrng_Maximum : 6.02 dB
  390. dynrng_Count : 1255
  391. format_identifier : AC-3
  392. Source : 00112.m2ts
  393.  
  394. Text #1
  395. ID : 4608 (0x1200)
  396. Menu ID : 1 (0x1)
  397. Format : PGS
  398. Codec ID : 144
  399. Duration : 2 h 0 min
  400. Language : English
  401. Source : 00112.m2ts
  402.  
  403. Text #2
  404. ID : 4609 (0x1201)
  405. Menu ID : 1 (0x1)
  406. Format : PGS
  407. Codec ID : 144
  408. Duration : 2 h 0 min
  409. Language : Spanish
  410. Source : 00112.m2ts
  411.  
  412. Text #3
  413. ID : 4610 (0x1202)
  414. Menu ID : 1 (0x1)
  415. Format : PGS
  416. Codec ID : 144
  417. Duration : 2 h 0 min
  418. Language : Portuguese
  419. Source : 00112.m2ts
  420.  
  421. Text #4
  422. ID : 4611 (0x1203)
  423. Menu ID : 1 (0x1)
  424. Format : PGS
  425. Codec ID : 144
  426. Duration : 2 h 0 min
  427. Language : Bulgarian
  428. Source : 00112.m2ts
  429.  
  430. Text #5
  431. ID : 4612 (0x1204)
  432. Menu ID : 1 (0x1)
  433. Format : PGS
  434. Codec ID : 144
  435. Duration : 2 h 0 min
  436. Language : Chinese
  437. Source : 00112.m2ts
  438.  
  439. Text #6
  440. ID : 4613 (0x1205)
  441. Menu ID : 1 (0x1)
  442. Format : PGS
  443. Codec ID : 144
  444. Duration : 2 h 0 min
  445. Language : Chinese
  446. Source : 00112.m2ts
  447.  
  448. Text #7
  449. ID : 4614 (0x1206)
  450. Menu ID : 1 (0x1)
  451. Format : PGS
  452. Codec ID : 144
  453. Duration : 2 h 0 min
  454. Language : Croatian
  455. Source : 00112.m2ts
  456.  
  457. Text #8
  458. ID : 4615 (0x1207)
  459. Menu ID : 1 (0x1)
  460. Format : PGS
  461. Codec ID : 144
  462. Duration : 2 h 0 min
  463. Language : Czech
  464. Source : 00112.m2ts
  465.  
  466. Text #9
  467. ID : 4616 (0x1208)
  468. Menu ID : 1 (0x1)
  469. Format : PGS
  470. Codec ID : 144
  471. Duration : 2 h 0 min
  472. Language : Hindi
  473. Source : 00112.m2ts
  474.  
  475. Text #10
  476. ID : 4617 (0x1209)
  477. Menu ID : 1 (0x1)
  478. Format : PGS
  479. Codec ID : 144
  480. Duration : 2 h 0 min
  481. Language : Hungarian
  482. Source : 00112.m2ts
  483.  
  484. Text #11
  485. ID : 4618 (0x120A)
  486. Menu ID : 1 (0x1)
  487. Format : PGS
  488. Codec ID : 144
  489. Duration : 2 h 0 min
  490. Language : Icelandic
  491. Source : 00112.m2ts
  492.  
  493. Text #12
  494. ID : 4619 (0x120B)
  495. Menu ID : 1 (0x1)
  496. Format : PGS
  497. Codec ID : 144
  498. Duration : 2 h 0 min
  499. Language : Indonesian
  500. Source : 00112.m2ts
  501.  
  502. Text #13
  503. ID : 4620 (0x120C)
  504. Menu ID : 1 (0x1)
  505. Format : PGS
  506. Codec ID : 144
  507. Duration : 2 h 0 min
  508. Language : Romanian
  509. Source : 00112.m2ts
  510.  
  511. Text #14
  512. ID : 4621 (0x120D)
  513. Menu ID : 1 (0x1)
  514. Format : PGS
  515. Codec ID : 144
  516. Duration : 2 h 0 min
  517. Language : Serbian
  518. Source : 00112.m2ts
  519.  
  520. Text #15
  521. ID : 4622 (0x120E)
  522. Menu ID : 1 (0x1)
  523. Format : PGS
  524. Codec ID : 144
  525. Duration : 2 h 0 min
  526. Language : Slovenian
  527. Source : 00112.m2ts
  528.  
  529. Text #16
  530. ID : 4623 (0x120F)
  531. Menu ID : 1 (0x1)
  532. Format : PGS
  533. Codec ID : 144
  534. Duration : 2 h 0 min
  535. Language : Thai
  536. Source : 00112.m2ts
  537.  
  538. Text #17
  539. ID : 4624 (0x1210)
  540. Menu ID : 1 (0x1)
  541. Format : PGS
  542. Codec ID : 144
  543. Duration : 2 h 0 min
  544. Delay relative to video : 1 s 1 ms
  545. Language : Russian
  546. Source : 00112.m2ts
  547.  
  548. Menu
  549. 00:00:00.000 : Chapter 1
  550. 00:07:31.826 : Chapter 2
  551. 00:15:26.467 : Chapter 3
  552. 00:23:23.568 : Chapter 4
  553. 00:30:12.811 : Chapter 5
  554. 00:36:49.665 : Chapter 6
  555. 00:45:13.544 : Chapter 7
  556. 00:53:35.879 : Chapter 8
  557. 01:03:13.080 : Chapter 9
  558. 01:09:24.493 : Chapter 10
  559. 01:16:02.891 : Chapter 11
  560. 01:24:27.604 : Chapter 12
  561. 01:32:14.820 : Chapter 13
  562. 01:39:17.826 : Chapter 14
  563. 01:44:19.503 : Chapter 15
  564. 01:48:34.925 : Chapter 16
RAW Paste Data

Adblocker detected! Please consider disabling it...

We've detected AdBlock Plus or some other adblocking software preventing Pastebin.com from fully loading.

We don't have any obnoxious sound, or popup ads, we actively block these annoying types of ads!

Please add Pastebin.com to your ad blocker whitelist or disable your adblocking software.

×