daily pastebin goal
28%
SHARE
TWEET

2006_Pirates_Of_The_Caribbean_Dead_Mans_Chest_Blu-Ray_1080P_

ChrisHD13 Jun 20th, 2018 80 Never
Not a member of Pastebin yet? Sign Up, it unlocks many cool features!
  1. Complete name               : E:\2006_Pirates_Of_The_Caribbean_Dead_Mans_Chest_Blu-Ray_1080P_DuaL_X265_10Bits_Slower_ChrisHD.mkv
  2. Format                      : Matroska
  3. Format version              : Version 4 / Version 2
  4. File size                   : 8.20 GiB
  5. Duration                    : 2 h 30 min
  6. Overall bit rate            : 7 794 kb/s
  7. Movie name                  : 2006 - Pirates Of The Caribbean: Dead Mans Chest
  8. Encoded date                : UTC 2018-02-10 21:53:44
  9. Writing application         : mkvmerge v20.0.0 ('I Am The Sun') 64-bit
  10. Writing library             : libebml v1.3.5 + libmatroska v1.4.8
  11.  
  12. Video
  13. ID                          : 1
  14. Format                      : HEVC
  15. Format/Info                 : High Efficiency Video Coding
  16. Format profile              : Main 10@L4@Main
  17. Codec ID                    : V_MPEGH/ISO/HEVC
  18. Duration                    : 2 h 30 min
  19. Bit rate                    : 6 508 kb/s
  20. Width                       : 1 920 pixels
  21. Height                      : 1 080 pixels
  22. Display aspect ratio        : 16:9
  23. Frame rate mode             : Constant
  24. Frame rate                  : 23.976 (24000/1001) FPS
  25. Color space                 : YUV
  26. Chroma subsampling          : 4:2:0
  27. Bit depth                   : 10 bits
  28. Bits/(Pixel*Frame)          : 0.131
  29. Stream size                 : 6.85 GiB (83%)
  30. Title                       : BD50 - ChrisHD
  31. Writing library             : x265 2.6+2-32e6f04b8713:[Windows][GCC 7.2.0][64 bit] 10bit
  32. Encoding settings           : cpuid=1173503 / frame-threads=3 / numa-pools=8 / wpp / no-pmode / no-pme / no-psnr / no-ssim / log-level=2 / input-csp=1 / input-res=1920x1080 / interlace=0 / total-frames=216744 / level-idc=0 / high-tier=1 / uhd-bd=0 / ref=4 / no-allow-non-conformance / no-repeat-headers / annexb / no-aud / no-hrd / info / hash=0 / no-temporal-layers / open-gop / min-keyint=23 / keyint=250 / bframes=8 / b-adapt=2 / b-pyramid / bframe-bias=0 / rc-lookahead=40 / lookahead-slices=4 / scenecut=40 / no-intra-refresh / ctu=64 / min-cu-size=8 / rect / amp / max-tu-size=32 / tu-inter-depth=2 / tu-intra-depth=2 / limit-tu=4 / rdoq-level=2 / dynamic-rd=0.00 / no-ssim-rd / signhide / no-tskip / nr-intra=0 / nr-inter=0 / no-constrained-intra / strong-intra-smoothing / max-merge=3 / limit-refs=2 / limit-modes / me=3 / subme=3 / merange=57 / temporal-mvp / weightp / weightb / no-analyze-src-pics / deblock=-2:-2 / no-sao / no-sao-non-deblock / rd=6 / no-early-skip / rskip / no-fast-intra / no-tskip-fast / no-cu-lossless / b-intra / no-splitrd-skip / rdpenalty=0 / psy-rd=2.00 / psy-rdoq=1.00 / no-rd-refine / analysis-reuse-mode=0 / no-lossless / cbqpoffs=0 / crqpoffs=0 / rc=crf / crf=20.0 / qcomp=0.60 / qpstep=4 / stats-write=0 / stats-read=0 / ipratio=1.40 / pbratio=1.30 / aq-mode=1 / aq-strength=1.00 / cutree / zone-count=0 / no-strict-cbr / qg-size=32 / no-rc-grain / qpmax=69 / qpmin=0 / no-const-vbv / sar=1 / overscan=0 / videoformat=5 / range=0 / colorprim=2 / transfer=2 / colormatrix=2 / chromaloc=0 / display-window=0 / max-cll=0,0 / min-luma=0 / max-luma=1023 / log2-max-poc-lsb=8 / vui-timing-info / vui-hrd-info / slices=1 / no-opt-qp-pps / no-opt-ref-list-length-pps / no-multi-pass-opt-rps / scenecut-bias=0.05 / no-opt-cu-delta-qp / no-aq-motion / no-hdr / no-hdr-opt / no-dhdr10-opt / analysis-reuse-level=5 / scale-factor=0 / refine-intra=0 / refine-inter=0 / refine-mv=0 / no-limit-sao / ctu-info=0 / no-lowpass-dct / refine-mv-type=0 / copy-pic=1
  33. Default                     : Yes
  34. Forced                      : No
  35.  
  36. Audio #1
  37. ID                          : 2
  38. Format                      : AC-3
  39. Format/Info                 : Audio Coding 3
  40. Codec ID                    : A_AC3
  41. Duration                    : 2 h 30 min
  42. Bit rate mode               : Constant
  43. Bit rate                    : 640 kb/s
  44. Channel(s)                  : 6 channels
  45. Channel positions           : Front: L C R, Side: L R, LFE
  46. Sampling rate               : 48.0 kHz
  47. Frame rate                  : 31.250 FPS (1536 SPF)
  48. Bit depth                   : 16 bits
  49. Compression mode            : Lossy
  50. Stream size                 : 690 MiB (8%)
  51. Title                       : Ingl├ęs - ChrisHD
  52. Language                    : English
  53. Service kind                : Complete Main
  54. Default                     : Yes
  55. Forced                      : No
  56.  
  57. Audio #2
  58. ID                          : 3
  59. Format                      : AC-3
  60. Format/Info                 : Audio Coding 3
  61. Codec ID                    : A_AC3
  62. Duration                    : 2 h 30 min
  63. Bit rate mode               : Constant
  64. Bit rate                    : 640 kb/s
  65. Channel(s)                  : 6 channels
  66. Channel positions           : Front: L C R, Side: L R, LFE
  67. Sampling rate               : 48.0 kHz
  68. Frame rate                  : 31.250 FPS (1536 SPF)
  69. Bit depth                   : 16 bits
  70. Compression mode            : Lossy
  71. Stream size                 : 690 MiB (8%)
  72. Title                       : Latino - ChrisHD
  73. Language                    : Spanish
  74. Service kind                : Complete Main
  75. Default                     : No
  76. Forced                      : No
  77.  
  78. Text #1
  79. ID                          : 4
  80. Format                      : UTF-8
  81. Codec ID                    : S_TEXT/UTF8
  82. Codec ID/Info               : UTF-8 Plain Text
  83. Duration                    : 2 h 21 min
  84. Bit rate                    : 38 b/s
  85. Count of elements           : 1222
  86. Stream size                 : 39.5 KiB (0%)
  87. Title                       : Latino - ChrisHD [SRT]
  88. Language                    : Spanish
  89. Default                     : Yes
  90. Forced                      : No
  91.  
  92. Text #2
  93. ID                          : 5
  94. Format                      : UTF-8
  95. Codec ID                    : S_TEXT/UTF8
  96. Codec ID/Info               : UTF-8 Plain Text
  97. Duration                    : 2 h 21 min
  98. Bit rate                    : 0 b/s
  99. Count of elements           : 4
  100. Stream size                 : 89.0 Bytes (0%)
  101. Title                       : Forzados - ChrisHD [SRT]
  102. Language                    : Spanish
  103. Default                     : No
  104. Forced                      : No
  105.  
  106. Text #3
  107. ID                          : 6
  108. Format                      : PGS
  109. Muxing mode                 : zlib
  110. Codec ID                    : S_HDMV/PGS
  111. Codec ID/Info               : Picture based subtitle format used on BDs/HD-DVDs
  112. Duration                    : 2 h 21 min
  113. Bit rate                    : 16.8 kb/s
  114. Count of elements           : 2444
  115. Stream size                 : 17.0 MiB (0%)
  116. Title                       : Latino - ChrisHD [PGS]
  117. Language                    : Spanish
  118. Default                     : No
  119. Forced                      : No
  120.  
  121. Text #4
  122. ID                          : 7
  123. Format                      : PGS
  124. Muxing mode                 : zlib
  125. Codec ID                    : S_HDMV/PGS
  126. Codec ID/Info               : Picture based subtitle format used on BDs/HD-DVDs
  127. Duration                    : 2 h 21 min
  128. Bit rate                    : 46 b/s
  129. Count of elements           : 8
  130. Stream size                 : 48.0 KiB (0%)
  131. Title                       : Forzados - ChrisHD [PGS]
  132. Language                    : Spanish
  133. Default                     : No
  134. Forced                      : No
  135.  
  136. Menu
  137. 00:00:00.000                : en:Introduction
  138. 00:04:18.925                : en:"and a Bottle of Rum"
  139. 00:09:53.009                : en:"Left Our Marks"
  140. 00:12:13.441                : en:"Time Is Running Out"
  141. 00:19:09.064                : en:"I Have Faith in You"
  142. 00:23:53.473                : en:"Save Me"
  143. 00:30:15.480                : en:Salvaging the Ship
  144. 00:35:29.418                : en:"About Six Will Do"
  145. 00:40:32.930                : en:"This Way, Lads"
  146. 00:46:28.035                : en:The Ship Is Haunted
  147. 00:50:25.564                : en:Touch of Destiny
  148. 00:56:18.625                : en:The Flying Dutchman
  149. 00:59:52.380                : en:Davy Jones
  150. 01:05:45.191                : en:Tortuga
  151. 01:11:55.853                : en:Mr. Turner
  152. 01:17:04.327                : en:"Hide the Rum"
  153. 01:22:10.258                : en:Game of Deception
  154. 01:30:36.639                : en:Persuade Me
  155. 01:34:38.172                : en:The Kraken
  156. 01:39:21.830                : en:"Very Much Alike"
  157. 01:44:52.410                : en:"Can't Let You Do That"
  158. 01:49:14.714                : en:Fight for the Key
  159. 01:54:55.805                : en:Beating Heart
  160. 01:59:36.043                : en:"I Got a Jar of Dirt"
  161. 02:04:59.908                : en:Load the Rum
  162. 02:10:27.194                : en:Abandon Ship
  163. 02:16:20.630                : en:"Something to Trade"
  164. 02:21:04.789                : en:Credits
  165. 02:30:39.030                : en:02:30:39.030
RAW Paste Data
We use cookies for various purposes including analytics. By continuing to use Pastebin, you agree to our use of cookies as described in the Cookies Policy. OK, I Understand
 
Top