GrabHD

Untitled

Mar 16th, 2020
89
Never
Not a member of Pastebin yet? Sign Up, it unlocks many cool features!
  1. Общее
  2. Уникальный идентификатор : 28142724814045534739987898829113031709 (0x152C1775F4817A2FB69E2352D3BA7C1D)
  3. Полное имя : South Wind.2018.REMUX.1080i.W.mkv
  4. Формат : Matroska
  5. Версия формата : Version 4
  6. Размер файла : 17,6 Гбайт
  7. Продолжительность : 2 ч. 5 м.
  8. Режим общего битрейта : Переменный
  9. Общий поток : 20,1 Мбит/сек
  10. Название фильма : South Wind.2018.REMUX.1080i.W
  11. Дата кодирования : UTC 2020-03-16 13:36:56
  12. Программа кодирования : mkvmerge v23.0.0 ('The Bride Said No') 64-bit
  13. Библиотека кодирования : libebml v1.3.6 + libmatroska v1.4.9
  14.  
  15. Видео
  16. Идентификатор : 1
  17. Формат : AVC
  18. Формат/Информация : Advanced Video Codec
  19. Профиль формата : High@L4.1
  20. Настройки формата : CABAC / 4 Ref Frames
  21. Параметр CABAC формата : Да
  22. Параметр RefFrames формата : 4 кадра
  23. Параметр GOP формата : M=3, N=18
  24. Идентификатор кодека : V_MPEG4/ISO/AVC
  25. Продолжительность : 2 ч. 5 м.
  26. Вид битрейта : Переменный
  27. Битрейт : 18,0 Мбит/сек
  28. Максимальный битрейт : 23,0 Мбит/сек
  29. Ширина : 1920 пикселей
  30. Высота : 1080 пикселей
  31. Соотношение сторон : 16:9
  32. Режим частоты кадров : Постоянный
  33. Частота кадров : 25,000 кадров/сек
  34. Стандарт вещания : PAL
  35. Цветовое пространство : YUV
  36. Субдискретизация насыщенности : 4:2:0
  37. Битовая глубина : 8 бит
  38. Тип развёртки : MBAFF
  39. Метод сохранения типа развёртки : Чередующиеся поля
  40. Порядок развёртки : Верхнее поле первое
  41. Бит/(Пиксели*Кадры) : 0.347
  42. Размер потока : 15,8 Гбайт (89%)
  43. Язык : Serbian
  44. Default : Да
  45. Forced : Нет
  46. Цветовой диапазон : Limited
  47. Основные цвета : BT.709
  48. Характеристики трансфера : BT.709
  49. Коэффициенты матрицы : BT.709
  50.  
  51. Аудио #1
  52. Идентификатор : 2
  53. Формат : AC-3
  54. Формат/Информация : Audio Coding 3
  55. Коммерческое название : Dolby Digital
  56. Идентификатор кодека : A_AC3
  57. Продолжительность : 2 ч. 5 м.
  58. Вид битрейта : Постоянный
  59. Битрейт : 192 Кбит/сек
  60. Каналы : 2 канала
  61. ChannelLayout : L R
  62. Частота : 48,0 КГц
  63. Частота кадров : 31,250 кадров/сек (1536 SPF)
  64. Метод сжатия : С потерями
  65. Размер потока : 172 Мбайт (1%)
  66. Заголовок : iTunes
  67. Язык : Russian
  68. ServiceKind : Complete Main
  69. Default : Да
  70. Forced : Нет
  71.  
  72. Аудио #2
  73. Идентификатор : 3
  74. Формат : DTS XLL
  75. Формат/Информация : Digital Theater Systems
  76. Коммерческое название : DTS-HD Master Audio
  77. Идентификатор кодека : A_DTS
  78. Продолжительность : 2 ч. 5 м.
  79. Вид битрейта : Переменный
  80. Битрейт : 1924 Кбит/сек
  81. Каналы : 6 каналов
  82. ChannelLayout : C L R Ls Rs LFE
  83. Частота : 48,0 КГц
  84. Частота кадров : 93,750 кадра/сек (512 SPF)
  85. Битовая глубина : 16 бит
  86. Метод сжатия : Без потерь
  87. Размер потока : 1,68 Гбайт (10%)
  88. Язык : Serbian
  89. Default : Нет
  90. Forced : Нет
  91.  
  92. Текст #1
  93. Идентификатор : 4
  94. Формат : UTF-8
  95. Идентификатор кодека : S_TEXT/UTF8
  96. Идентификатор кодека/Информация : UTF-8 Plain Text
  97. Продолжительность : 1 ч. 59 м.
  98. Битрейт : 92 бит/сек
  99. ElementCount : 1356
  100. Размер потока : 80,8 Кбайт (0%)
  101. Язык : Russian
  102. Default : Нет
  103. Forced : Нет
  104.  
  105. Текст #2
  106. Идентификатор : 5
  107. Формат : UTF-8
  108. Идентификатор кодека : S_TEXT/UTF8
  109. Идентификатор кодека/Информация : UTF-8 Plain Text
  110. Продолжительность : 1 ч. 59 м.
  111. Битрейт : 54 бит/сек
  112. ElementCount : 1361
  113. Размер потока : 47,8 Кбайт (0%)
  114. Заголовок : English
  115. Язык : English
  116. Default : Нет
  117. Forced : Нет
  118.  
  119. Меню
  120. 00:00:00.000 : en:00:00:00.000
  121. 00:09:55.360 : en:00:09:55.360
  122. 00:20:36.160 : en:00:20:36.160
  123. 00:32:45.720 : en:00:32:45.720
  124. 00:40:26.240 : en:00:40:26.240
  125. 00:49:45.520 : en:00:49:45.520
  126. 01:00:14.840 : en:01:00:14.840
  127. 01:09:56.000 : en:01:09:56.000
  128. 01:23:13.400 : en:01:23:13.400
  129. 01:30:31.000 : en:01:30:31.000
  130. 01:40:39.440 : en:01:40:39.440
  131. 01:49:55.680 : en:01:49:55.680
RAW Paste Data