SHARE
TWEET

Untitled

ANIMOUS Mar 25th, 2019 72 Never
Not a member of Pastebin yet? Sign Up, it unlocks many cool features!
  1. General
  2. Unique ID                   : 333261484310089229257724404754442616086 (0xFAB7D3C302AED48992FF86E557ABFD16)
  3. Complete name               : F:\Sword Art Online - The Movie - Ordinal Scale 2017 1080p BluRay [Dual Audio] AC3 6CH x265 - E.N.D\Sword Art Online - The Movie - Ordinal Scale 2017 1080p BluRay [Dual Audio] AC3 6CH x265 - E.N.D.mkv
  4. Format                      : Matroska
  5. Format version              : Version 4
  6. File size                   : 2.52 GiB
  7. Duration                    : 2 h 0 min
  8. Overall bit rate            : 3 002 kb/s
  9. Movie name                  : Sword Art Online - The Movie - Ordinal Scale 2017 1080p BluRay [Dual Audio] AC3 6CH x265 - E.N.D
  10. Encoded date                : UTC 2019-03-25 16:38:15
  11. Writing application         : mkvmerge v30.1.0 ('Forever And More') 64-bit
  12. Writing library             : libebml v1.3.6 + libmatroska v1.4.9
  13. Attachments                 : Copperplate Bold_0.ttf / estre_0.ttf / Fontin_Sans_1.otf / FOT-SkipStd-B-CP_1.ttf / framd_1.ttf / FRAMDCN_1.TTF / helr45w.ttf / HELVETICA LT 55 ROMAN_0.TTF / Helvetica-Black_1.otf / KozGoPro-Heavy.otf / KozGoPro-Light.otf / KozGoPro-Medium.otf / LAOUI.TTF / LinLibertine_R_0.ttf / LVNM.TTF / Malter_Sans_Light Demo_0.otf / MANGALB.TTF / MyriadPro-BlackSemiCn.otf / RotisWTF_0.ttf / tt0290m.ttf / wlfzhh.otf / A-OTF-ShinMGoPro-Bold-PlzIri_0.ttf / Baskerville Handcut_0.ttf / BASKVILL_1.TTF / Chuu-2-ad Pro Italic_1.ttf / Chuu-2-ad Pro_1.ttf
  14.  
  15. Video
  16. ID                          : 1
  17. Format                      : HEVC
  18. Format/Info                 : High Efficiency Video Coding
  19. Format profile              : Main@L4@Main
  20. Codec ID                    : V_MPEGH/ISO/HEVC
  21. Duration                    : 2 h 0 min
  22. Bit rate                    : 2 200 kb/s
  23. Width                       : 1 920 pixels
  24. Height                      : 1 080 pixels
  25. Display aspect ratio        : 16:9
  26. Frame rate mode             : Constant
  27. Frame rate                  : 23.976 (24000/1001) FPS
  28. Color space                 : YUV
  29. Chroma subsampling          : 4:2:0
  30. Bit depth                   : 8 bits
  31. Bits/(Pixel*Frame)          : 0.044
  32. Stream size                 : 1.85 GiB (73%)
  33. Writing library             : x265 2.6:[Windows][GCC 7.3.0][64 bit] 8bit+10bit+12bit
  34. Encoding settings           : cpuid=1049599 / frame-threads=2 / numa-pools=4 / wpp / no-pmode / no-pme / no-psnr / no-ssim / log-level=2 / input-csp=1 / input-res=1920x1080 / interlace=0 / total-frames=0 / level-idc=0 / high-tier=1 / uhd-bd=0 / ref=3 / no-allow-non-conformance / no-repeat-headers / annexb / no-aud / no-hrd / info / hash=0 / no-temporal-layers / open-gop / min-keyint=24 / keyint=240 / bframes=4 / b-adapt=2 / b-pyramid / bframe-bias=0 / rc-lookahead=20 / lookahead-slices=6 / scenecut=40 / no-intra-refresh / ctu=64 / min-cu-size=8 / no-rect / no-amp / max-tu-size=32 / tu-inter-depth=1 / tu-intra-depth=1 / limit-tu=0 / rdoq-level=0 / dynamic-rd=0.00 / no-ssim-rd / signhide / no-tskip / nr-intra=0 / nr-inter=0 / no-constrained-intra / no-strong-intra-smoothing / max-merge=2 / limit-refs=3 / no-limit-modes / me=1 / subme=2 / merange=57 / temporal-mvp / weightp / no-weightb / no-analyze-src-pics / deblock=0:0 / sao / no-sao-non-deblock / rd=3 / no-early-skip / rskip / no-fast-intra / no-tskip-fast / no-cu-lossless / no-b-intra / no-splitrd-skip / rdpenalty=0 / psy-rd=2.00 / psy-rdoq=0.00 / no-rd-refine / analysis-reuse-mode=0 / no-lossless / cbqpoffs=0 / crqpoffs=0 / rc=abr / bitrate=2200 / qcomp=0.60 / qpstep=4 / stats-write=0 / stats-read=2 / cplxblur=20.0 / qblur=0.5 / ipratio=1.40 / pbratio=1.30 / aq-mode=1 / aq-strength=1.00 / cutree / zone-count=0 / no-strict-cbr / qg-size=32 / no-rc-grain / qpmax=69 / qpmin=0 / no-const-vbv / sar=1 / overscan=0 / videoformat=5 / range=0 / colorprim=1 / transfer=1 / colormatrix=1 / chromaloc=0 / display-window=0 / max-cll=0,0 / min-luma=0 / max-luma=255 / log2-max-poc-lsb=8 / vui-timing-info / vui-hrd-info / slices=1 / no-opt-qp-pps / no-opt-ref-list-length-pps / no-multi-pass-opt-rps / scenecut-bias=0.05 / no-opt-cu-delta-qp / no-aq-motion / no-hdr / no-hdr-opt / no-dhdr10-opt / analysis-reuse-level=5 / scale-factor=0 / refine-intra=0 / refine-inter=0 / refine-mv=0 / no-limit-sao / ctu-info=0 / no-lowpass-dct / refine-mv-type=0 / copy-pic=1
  35. Default                     : Yes
  36. Forced                      : No
  37. Color range                 : Limited
  38. Color primaries             : BT.709
  39. Transfer characteristics    : BT.709
  40. Matrix coefficients         : BT.709
  41.  
  42. Audio #1
  43. ID                          : 3
  44. Format                      : AC-3
  45. Format/Info                 : Audio Coding 3
  46. Commercial name             : Dolby Digital
  47. Codec ID                    : A_AC3
  48. Duration                    : 2 h 0 min
  49. Bit rate mode               : Constant
  50. Bit rate                    : 384 kb/s
  51. Channel(s)                  : 6 channels
  52. Channel layout              : L R C LFE Ls Rs
  53. Sampling rate               : 48.0 kHz
  54. Frame rate                  : 31.250 FPS (1536 SPF)
  55. Bit depth                   : 16 bits
  56. Compression mode            : Lossy
  57. Stream size                 : 330 MiB (13%)
  58. Language                    : English
  59. Service kind                : Complete Main
  60. Default                     : No
  61. Forced                      : No
  62.  
  63. Audio #2
  64. ID                          : 4
  65. Format                      : AC-3
  66. Format/Info                 : Audio Coding 3
  67. Commercial name             : Dolby Digital
  68. Codec ID                    : A_AC3
  69. Duration                    : 2 h 0 min
  70. Bit rate mode               : Constant
  71. Bit rate                    : 384 kb/s
  72. Channel(s)                  : 6 channels
  73. Channel layout              : L R C LFE Ls Rs
  74. Sampling rate               : 48.0 kHz
  75. Frame rate                  : 31.250 FPS (1536 SPF)
  76. Bit depth                   : 16 bits
  77. Compression mode            : Lossy
  78. Stream size                 : 330 MiB (13%)
  79. Language                    : Japanese
  80. Service kind                : Complete Main
  81. Default                     : Yes
  82. Forced                      : No
  83.  
  84. Text
  85. ID                          : 2
  86. Format                      : ASS
  87. Codec ID                    : S_TEXT/ASS
  88. Codec ID/Info               : Advanced Sub Station Alpha
  89. Duration                    : 1 h 59 min
  90. Bit rate                    : 13.1 kb/s
  91. Count of elements           : 54706
  92. Compression mode            : Lossless
  93. Stream size                 : 11.2 MiB (0%)
  94. Language                    : English
  95. Default                     : Yes
  96. Forced                      : No
  97.  
  98. Menu
  99. 00:00:00.000                : :Part A
  100. 00:04:06.246                : :Part B
  101. 00:11:04.664                : :Part C
  102. 00:19:37.134                : :Part D
  103. 00:25:59.308                : :Part E
  104. 00:32:03.004                : :Part F
  105. 00:38:33.728                : :Part G
  106. 00:42:36.888                : :Part H
  107. 00:45:19.842                : :Part I
  108. 00:51:59.992                : :Part J
  109. 00:55:47.344                : :Part K
  110. 01:02:52.519                : :Part L
  111. 01:09:04.724                : :Part M
  112. 01:19:41.402                : :Part N
  113. 01:23:58.367                : :Part O
  114. 01:26:41.029                : :Part P
  115. 01:33:49.666                : :Part Q
  116. 01:39:29.964                : :Part R
  117. 01:46:47.234                : :Part S
  118. 01:50:46.682                : :Part T
  119. 01:54:33.533                : :Part U
  120. 01:59:13.647                : :Part V
RAW Paste Data
We use cookies for various purposes including analytics. By continuing to use Pastebin, you agree to our use of cookies as described in the Cookies Policy. OK, I Understand
Not a member of Pastebin yet?
Sign Up, it unlocks many cool features!
 
Top