Interfilm

Untitled

Jun 12th, 2014
230
Never
Not a member of Pastebin yet? Sign Up, it unlocks many cool features!
  1. General
  2. Parts.Per.Billion.2014.Blu.Ray.1080p.CINEMANIA.mkv
  3. Format : Matroska
  4. Format version : Version 4 / Version 2
  5. File size : 7.14 GiB
  6. Duration : 1h 41mn
  7. Overall bit rate : 10.0 Mbps
  8. Movie name : Release Group CINEMANIA
  9. Encoded date : UTC 2014-06-12 21:32:49
  10. Writing application : mkvmerge v7.0.0 ('Where We Going') 64bit built on Jun 9 2014 15:16:27
  11. Writing library : libebml v1.3.0 + libmatroska v1.4.1
  12.  
  13. Video
  14. ID : 1
  15. Format : AVC
  16. Format/Info : Advanced Video Codec
  17. Format profile : High@L4.1
  18. Format settings, CABAC : Yes
  19. Format settings, ReFrames : 4 frames
  20. Codec ID : V_MPEG4/ISO/AVC
  21. Duration : 1h 41mn
  22. Bit rate : 8 362 Kbps
  23. Nominal bit rate : 8 858 Kbps
  24. Width : 1 920 pixels
  25. Height : 1 040 pixels
  26. Display aspect ratio : 1.85:1
  27. Frame rate mode : Constant
  28. Frame rate : 23.976 fps
  29. Color space : YUV
  30. Chroma subsampling : 4:2:0
  31. Bit depth : 8 bits
  32. Scan type : Progressive
  33. Bits/(Pixel*Frame) : 0.175
  34. Stream size : 5.95 GiB (83%)
  35. Title : Release Group CINEMANIA
  36. Writing library : x264 core 142 r2431 ac76440
  37. Encoding settings : cabac=1 / ref=4 / deblock=1:0:0 / analyse=0x3:0x133 / me=umh / subme=8 / psy=1 / psy_rd=1.00:0.00 / mixed_ref=1 / me_range=16 / chroma_me=1 / trellis=1 / 8x8dct=1 / cqm=0 / deadzone=21,11 / fast_pskip=0 / chroma_qp_offset=-2 / threads=12 / lookahead_threads=2 / sliced_threads=0 / nr=0 / decimate=1 / interlaced=0 / bluray_compat=0 / constrained_intra=0 / bframes=3 / b_pyramid=2 / b_adapt=2 / b_bias=0 / direct=3 / weightb=1 / open_gop=0 / weightp=2 / keyint=250 / keyint_min=23 / scenecut=40 / intra_refresh=0 / rc_lookahead=50 / rc=2pass / mbtree=1 / bitrate=8858 / ratetol=1.0 / qcomp=0.60 / qpmin=0 / qpmax=69 / qpstep=4 / cplxblur=20.0 / qblur=0.5 / ip_ratio=1.40 / aq=1:1.00
  38. Language : English
  39. Default : Yes
  40. Forced : No
  41.  
  42. Audio #1
  43. ID : 2
  44. Format : AC-3
  45. Format/Info : Audio Coding 3
  46. Mode extension : CM (complete main)
  47. Format settings, Endianness : Big
  48. Codec ID : A_AC3
  49. Duration : 1h 41mn
  50. Bit rate mode : Constant
  51. Bit rate : 192 Kbps
  52. Channel(s) : 2 channels
  53. Channel positions : Front: L R
  54. Sampling rate : 48.0 KHz
  55. Bit depth : 16 bits
  56. Compression mode : Lossy
  57. Stream size : 140 MiB (2%)
  58. Title : datynet
  59. Language : Russian
  60. Default : Yes
  61. Forced : Yes
  62.  
  63. Audio #2
  64. ID : 3
  65. Format : AC-3
  66. Format/Info : Audio Coding 3
  67. Mode extension : CM (complete main)
  68. Format settings, Endianness : Big
  69. Codec ID : A_AC3
  70. Duration : 1h 41mn
  71. Bit rate mode : Constant
  72. Bit rate : 640 Kbps
  73. Channel(s) : 6 channels
  74. Channel positions : Front: L C R, Side: L R, LFE
  75. Sampling rate : 48.0 KHz
  76. Bit depth : 16 bits
  77. Compression mode : Lossy
  78. Stream size : 467 MiB (6%)
  79. Language : English
  80. Default : No
  81. Forced : No
  82.  
  83. Text
  84. ID : 4
  85. Format : UTF-8
  86. Codec ID : S_TEXT/UTF8
  87. Codec ID/Info : UTF-8 Plain Text
  88. Language : English
  89. Default : No
  90. Forced : No
  91.  
  92. Menu
  93. 00:00:00.000 : en:00:00:00.000
  94. 00:07:24.819 : en:00:07:24.819
  95. 00:15:12.203 : en:00:15:12.203
  96. 00:24:18.082 : en:00:24:18.082
  97. 00:28:43.180 : en:00:28:43.180
  98. 00:39:55.476 : en:00:39:55.476
  99. 00:47:40.399 : en:00:47:40.399
  100. 00:55:25.405 : en:00:55:25.405
  101. 01:03:22.465 : en:01:03:22.465
  102. 01:14:21.957 : en:01:14:21.957
  103. 01:21:38.227 : en:01:21:38.227
  104. 01:34:06.724 : en:01:34:06.724
RAW Paste Data