GrabHD

Untitled

Apr 14th, 2020
71
Never
Not a member of Pastebin yet? Sign Up, it unlocks many cool features!
  1. General
  2. Unique ID : 181523037114088238404490779727336424582 (0x889010B605457C6B8F41DE70D969C486)
  3. Complete name : Fantasy.Island.2020.WEB-DL.1080p.AMZN.L1.mkv
  4. Format : Matroska
  5. Format version : Version 4
  6. File size : 6.71 GiB
  7. Duration : 1 h 49 min
  8. Overall bit rate : 8 780 kb/s
  9. Encoded date : UTC 2020-04-14 12:56:56
  10. Writing application : mkvmerge v8.3.0 ('Over the Horizon') 64bit
  11. Writing library : libebml v1.3.1 + libmatroska v1.4.2
  12.  
  13. Video
  14. ID : 1
  15. Format : AVC
  16. Format/Info : Advanced Video Codec
  17. Format profile : High@L4
  18. Format settings : CABAC / 4 Ref Frames
  19. Format settings, CABAC : Yes
  20. Format settings, ReFrames : 4 frames
  21. Codec ID : V_MPEG4/ISO/AVC
  22. Duration : 1 h 49 min
  23. Bit rate mode : Constant
  24. Bit rate : 8 137 kb/s
  25. Nominal bit rate : 10 000 kb/s
  26. Width : 1 920 pixels
  27. Height : 800 pixels
  28. Display aspect ratio : 2.40:1
  29. Frame rate mode : Constant
  30. Frame rate : 23.976 (24000/1001) FPS
  31. Color space : YUV
  32. Chroma subsampling : 4:2:0
  33. Bit depth : 8 bits
  34. Scan type : Progressive
  35. Bits/(Pixel*Frame) : 0.221
  36. Stream size : 6.22 GiB (93%)
  37. Default : Yes
  38. Forced : No
  39. Color range : Limited
  40. Color primaries : BT.709
  41. Transfer characteristics : BT.709
  42. Matrix coefficients : BT.709
  43.  
  44. Audio #1
  45. ID : 2
  46. Format : AC-3
  47. Format/Info : Audio Coding 3
  48. Commercial name : Dolby Digital
  49. Codec ID : A_AC3
  50. Duration : 1 h 49 min
  51. Bit rate mode : Constant
  52. Bit rate : 192 kb/s
  53. Channel(s) : 2 channels
  54. Channel layout : L R
  55. Sampling rate : 48.0 kHz
  56. Frame rate : 31.250 FPS (1536 SPF)
  57. Bit depth : 16 bits
  58. Compression mode : Lossy
  59. Stream size : 150 MiB (2%)
  60. Title : L [Антон Кудрявцев]
  61. Language : Russian
  62. Service kind : Complete Main
  63. Default : Yes
  64. Forced : No
  65.  
  66. Audio #2
  67. ID : 3
  68. Format : AC-3
  69. Format/Info : Audio Coding 3
  70. Commercial name : Dolby Digital
  71. Codec ID : A_AC3
  72. Duration : 1 h 49 min
  73. Bit rate mode : Constant
  74. Bit rate : 448 kb/s
  75. Channel(s) : 6 channels
  76. Channel layout : L R C LFE Ls Rs
  77. Sampling rate : 48.0 kHz
  78. Frame rate : 31.250 FPS (1536 SPF)
  79. Bit depth : 16 bits
  80. Compression mode : Lossy
  81. Stream size : 351 MiB (5%)
  82. Language : English
  83. Service kind : Complete Main
  84. Default : No
  85. Forced : No
  86.  
  87. Text #1
  88. ID : 4
  89. Format : UTF-8
  90. Codec ID : S_TEXT/UTF8
  91. Codec ID/Info : UTF-8 Plain Text
  92. Duration : 1 h 48 min
  93. Bit rate : 96 b/s
  94. Count of elements : 1409
  95. Stream size : 76.5 KiB (0%)
  96. Title : Full [Екатерина Лисицина]
  97. Language : Russian
  98. Default : No
  99. Forced : No
  100.  
  101. Text #2
  102. ID : 5
  103. Format : UTF-8
  104. Codec ID : S_TEXT/UTF8
  105. Codec ID/Info : UTF-8 Plain Text
  106. Duration : 1 h 48 min
  107. Bit rate : 89 b/s
  108. Count of elements : 1409
  109. Stream size : 70.9 KiB (0%)
  110. Title : Full [Владимир Фатун]
  111. Language : Ukrainian
  112. Default : No
  113. Forced : No
  114.  
  115. Text #3
  116. ID : 6
  117. Format : UTF-8
  118. Codec ID : S_TEXT/UTF8
  119. Codec ID/Info : UTF-8 Plain Text
  120. Duration : 1 h 46 min
  121. Bit rate : 61 b/s
  122. Count of elements : 1581
  123. Stream size : 48.1 KiB (0%)
  124. Title : Full
  125. Language : English
  126. Default : No
  127. Forced : No
  128.  
  129. Text #4
  130. ID : 7
  131. Format : UTF-8
  132. Codec ID : S_TEXT/UTF8
  133. Codec ID/Info : UTF-8 Plain Text
  134. Duration : 1 h 48 min
  135. Bit rate : 67 b/s
  136. Count of elements : 1930
  137. Stream size : 53.5 KiB (0%)
  138. Title : SDH
  139. Language : English
  140. Default : No
  141. Forced : No
  142.  
  143. Menu
  144. 00:00:00.000 : en:1
  145. 00:08:46.985 : en:2
  146. 00:13:44.699 : en:3
  147. 00:18:47.709 : en:4
  148. 00:25:42.915 : en:5
  149. 00:32:40.749 : en:6
  150. 00:39:34.788 : en:7
  151. 00:45:24.512 : en:8
  152. 00:51:01.932 : en:9
  153. 00:55:38.124 : en:10
  154. 01:01:33.937 : en:11
  155. 01:09:39.881 : en:12
  156. 01:15:22.306 : en:13
  157. 01:23:02.808 : en:14
  158. 01:29:11.801 : en:15
  159. 01:40:04.119 : en:16
RAW Paste Data