HYBRID_BEING

[pen] SukaSuka - 03 [1C28C804].mkv

Jul 16th, 2017
87
Never
Not a member of Pastebin yet? Sign Up, it unlocks many cool features!
  1. General
  2. Unique ID : 242265035858603367377133281805714285161 (0xB6428C77DA64BF958E7151B0D1436269)
  3. Complete name : [pen] SukaSuka - 03 [1C28C804].mkv
  4. Format : Matroska
  5. Format version : Version 4 / Version 2
  6. File size : 533 MiB
  7. Duration : 24mn 10s
  8. Overall bit rate : 3 085 Kbps
  9. Encoded date : UTC 2017-04-27 00:02:40
  10. Writing application : mkvmerge v9.9.0 ('Pick Up') 32bit
  11. Writing library : libebml v1.3.4 + libmatroska v1.4.5
  12. Attachments : AeroDB Normal.ttf / FOTManyoSoshoStdStripped-EB2 (1)_0.otf / GandhiSans-Bold_1.otf / GandhiSans-BoldItalic_1.otf / IwaOMinPro-Fate-Bd.ttf
  13.  
  14. Video
  15. ID : 1
  16. Format : AVC
  17. Format/Info : Advanced Video Codec
  18. Format profile : High 4:4:4 Predictive@L5
  19. Format settings, CABAC : Yes
  20. Format settings, ReFrames : 16 frames
  21. Codec ID : V_MPEG4/ISO/AVC
  22. Duration : 24mn 9s
  23. Bit rate : 2 951 Kbps
  24. Width : 1 280 pixels
  25. Height : 720 pixels
  26. Display aspect ratio : 16:9
  27. Frame rate mode : Constant
  28. Frame rate : 23.976 (24000/1001) fps
  29. Color space : YUV
  30. Chroma subsampling : 4:4:4
  31. Bit depth : 10 bits
  32. Scan type : Progressive
  33. Bits/(Pixel*Frame) : 0.134
  34. Stream size : 510 MiB (96%)
  35. Writing library : x264 core 148 r2762+56 6284cf3 t_mod_Custom [10-bit@all X86]
  36. Encoding settings : cabac=1 / ref=16 / deblock=1:-1:-1 / analyse=0x3:0x113 / me=umh / subme=10 / psy=1 / fade_compensate=0.70 / psy_rd=0.75:0.05 / mixed_ref=1 / me_range=24 / chroma_me=1 / trellis=2 / 8x8dct=1 / cqm=0 / deadzone=21,11 / fast_pskip=1 / chroma_qp_offset=-3 / threads=12 / lookahead_threads=3 / sliced_threads=0 / nr=0 / decimate=1 / interlaced=0 / bluray_compat=0 / constrained_intra=0 / fgo=0 / bframes=10 / b_pyramid=2 / b_adapt=2 / b_bias=0 / direct=1 / weightb=1 / open_gop=0 / weightp=2 / keyint=250 / keyint_min=23 / scenecut=40 / intra_refresh=0 / rc_lookahead=60 / rc=crf / mbtree=1 / crf=16.0000 / qcomp=0.72 / qpmin=0:0:0 / qpmax=81:81:81 / qpstep=4 / ip_ratio=1.40 / aq=3:0.80 / aq-sensitivity=10.00 / aq-factor=1.00:1.00:1.00 / aq2=0 / aq3=0
  37. Language : Japanese
  38. Default : Yes
  39. Forced : No
  40.  
  41. Audio
  42. ID : 2
  43. Format : AAC
  44. Format/Info : Advanced Audio Codec
  45. Format profile : LC
  46. Codec ID : A_AAC
  47. Duration : 24mn 10s
  48. Bit rate : 126 Kbps
  49. Channel(s) : 2 channels
  50. Channel positions : Front: L R
  51. Sampling rate : 44.1 KHz
  52. Frame rate : 43.066 fps (1024 spf)
  53. Compression mode : Lossy
  54. Stream size : 21.7 MiB (4%)
  55. Language : Japanese
  56. Default : Yes
  57. Forced : No
  58.  
  59. Text
  60. ID : 3
  61. Format : ASS
  62. Codec ID : S_TEXT/ASS
  63. Codec ID/Info : Advanced Sub Station Alpha
  64. Duration : 24mn 8s
  65. Bit rate : 217 bps
  66. Count of elements : 502
  67. Compression mode : Lossless
  68. Stream size : 38.5 KiB (0%)
  69. Language : English
  70. Default : Yes
  71. Forced : No
  72.  
  73. Menu
  74. 00:00:00.033 : en:Intro
  75. 00:00:16.030 : en:OP
  76. 00:01:46.040 : en:Part A
  77. 00:11:28.000 : en:Part B
  78. 00:22:35.000 : en:ED
  79. 00:24:04.960 : en:Preview
RAW Paste Data