Advertisement
trds

Untitled

Dec 18th, 2021
843
Never
Not a member of Pastebin yet? Sign Up, it unlocks many cool features!
  1. General
  2. Unique ID                                : 90547268947688624974140043994486462548 (0x441EC508C200D182E6B5DE42CCC2D854)
  3. Complete name                            : D:\Encodes\Red.Notice.2021.720p.WEBRip.DDP5.1.Atmos.x264-playHD\Red.Notice.2021.720p.WEBRip.DDP5.1.Atmos.x264-playHD.mkv
  4. Format                                   : Matroska
  5. Format version                           : Version 4
  6. File size                                : 6.21 GiB
  7. Duration                                 : 1 h 57 min
  8. Overall bit rate                         : 7 530 kb/s
  9. Encoded date                             : UTC 2021-12-18 16:31:25
  10. Writing application                      : mkvmerge v56.1.0 ('My Friend') 64-bit
  11. Writing library                          : libebml v1.4.2 + libmatroska v1.6.4
  12.  
  13. Video
  14. ID                                       : 1
  15. Format                                   : AVC
  16. Format/Info                              : Advanced Video Codec
  17. Format profile                           : High@L4.1
  18. Format settings                          : CABAC / 12 Ref Frames
  19. Format settings, CABAC                   : Yes
  20. Format settings, Reference frames        : 12 frames
  21. Codec ID                                 : V_MPEG4/ISO/AVC
  22. Duration                                 : 1 h 57 min
  23. Bit rate                                 : 6 756 kb/s
  24. Width                                    : 1 280 pixels
  25. Height                                   : 536 pixels
  26. Display aspect ratio                     : 2.40:1
  27. Frame rate mode                          : Constant
  28. Frame rate                               : 24.000 FPS
  29. Color space                              : YUV
  30. Chroma subsampling                       : 4:2:0
  31. Bit depth                                : 8 bits
  32. Scan type                                : Progressive
  33. Bits/(Pixel*Frame)                       : 0.410
  34. Stream size                              : 5.57 GiB (90%)
  35. Writing library                          : x264 core 161 r3048+53M t_mod ~~~~~~~ Just us ~ JigSaw & droops16 ~
  36. Encoding settings                        : cabac=1 / ref=12 / deblock=1:-3:-3 / analyse=0x3:0x133 / me=umh / subme=10 / psy=1 / fade_compensate=0.00 / psy_rd=1.00:0.00 / mixed_ref=1 / me_range=32 / chroma_me=1 / trellis=2 / 8x8dct=1 / cqm=0 / deadzone=21,11 / fast_pskip=0 / chroma_qp_offset=-2 / threads=12 / lookahead_threads=2 / sliced_threads=0 / nr=0 / decimate=0 / interlaced=0 / bluray_compat=0 / constrained_intra=0 / fgo=0 / bframes=9 / b_pyramid=2 / b_adapt=2 / b_bias=0 / direct=3 / weightb=1 / open_gop=0 / weightp=2 / keyint=250 / keyint_min=24 / scenecut=40 / intra_refresh=0 / rc=crf / mbtree=0 / crf=15.4000 / qcomp=0.60 / qpmin=0:0:0 / qpmax=69:69:69 / qpstep=4 / ip_ratio=1.30 / pb_ratio=1.20 / aq=3:0.85 / aq-sensitivity=10.00 / aq-factor=1.00:1.00:1.00 / aq2=0 / aq3=0
  37. Language                                 : English
  38. Default                                  : Yes
  39. Forced                                   : No
  40.  
  41. Audio
  42. ID                                       : 2
  43. Format                                   : E-AC-3 JOC
  44. Format/Info                              : Enhanced AC-3 with Joint Object Coding
  45. Commercial name                          : Dolby Digital Plus with Dolby Atmos
  46. Codec ID                                 : A_EAC3
  47. Duration                                 : 1 h 57 min
  48. Bit rate mode                            : Constant
  49. Bit rate                                 : 768 kb/s
  50. Channel(s)                               : 6 channels
  51. Channel layout                           : L R C LFE Ls Rs
  52. Sampling rate                            : 48.0 kHz
  53. Frame rate                               : 31.250 FPS (1536 SPF)
  54. Compression mode                         : Lossy
  55. Stream size                              : 648 MiB (10%)
  56. Language                                 : English
  57. Service kind                             : Complete Main
  58. Default                                  : Yes
  59. Forced                                   : No
  60. Complexity index                         : 16
  61. Number of dynamic objects                : 15
  62. Bed channel count                        : 1 channel
  63. Bed channel configuration                : LFE
  64.  
  65. Text #1
  66. ID                                       : 3
  67. Format                                   : UTF-8
  68. Codec ID                                 : S_TEXT/UTF8
  69. Codec ID/Info                            : UTF-8 Plain Text
  70. Duration                                 : 1 h 38 min
  71. Bit rate                                 : 1 b/s
  72. Count of elements                        : 33
  73. Stream size                              : 816 Bytes (0%)
  74. Title                                    : Force
  75. Language                                 : English
  76. Default                                  : No
  77. Forced                                   : No
  78.  
  79. Text #2
  80. ID                                       : 4
  81. Format                                   : UTF-8
  82. Codec ID                                 : S_TEXT/UTF8
  83. Codec ID/Info                            : UTF-8 Plain Text
  84. Duration                                 : 1 h 54 min
  85. Bit rate                                 : 68 b/s
  86. Count of elements                        : 1718
  87. Stream size                              : 57.6 KiB (0%)
  88. Title                                    : SDH
  89. Language                                 : English
  90. Default                                  : No
  91. Forced                                   : No
  92.  
  93. Text #3
  94. ID                                       : 5
  95. Format                                   : UTF-8
  96. Codec ID                                 : S_TEXT/UTF8
  97. Codec ID/Info                            : UTF-8 Plain Text
  98. Duration                                 : 1 h 55 min
  99. Bit rate                                 : 95 b/s
  100. Count of elements                        : 1456
  101. Stream size                              : 80.7 KiB (0%)
  102. Language                                 : Arabic
  103. Default                                  : No
  104. Forced                                   : No
  105.  
  106. Text #4
  107. ID                                       : 6
  108. Format                                   : UTF-8
  109. Codec ID                                 : S_TEXT/UTF8
  110. Codec ID/Info                            : UTF-8 Plain Text
  111. Duration                                 : 1 h 55 min
  112. Bit rate                                 : 48 b/s
  113. Count of elements                        : 1370
  114. Stream size                              : 40.8 KiB (0%)
  115. Language                                 : Czech
  116. Default                                  : No
  117. Forced                                   : No
  118.  
  119. Text #5
  120. ID                                       : 7
  121. Format                                   : UTF-8
  122. Codec ID                                 : S_TEXT/UTF8
  123. Codec ID/Info                            : UTF-8 Plain Text
  124. Duration                                 : 1 h 54 min
  125. Bit rate                                 : 63 b/s
  126. Count of elements                        : 1444
  127. Stream size                              : 53.1 KiB (0%)
  128. Language                                 : Welsh
  129. Default                                  : No
  130. Forced                                   : No
  131.  
  132. Text #6
  133. ID                                       : 8
  134. Format                                   : UTF-8
  135. Codec ID                                 : S_TEXT/UTF8
  136. Codec ID/Info                            : UTF-8 Plain Text
  137. Duration                                 : 1 h 55 min
  138. Bit rate                                 : 48 b/s
  139. Count of elements                        : 1282
  140. Stream size                              : 40.7 KiB (0%)
  141. Language                                 : Danish
  142. Default                                  : No
  143. Forced                                   : No
  144.  
  145. Text #7
  146. ID                                       : 9
  147. Format                                   : UTF-8
  148. Codec ID                                 : S_TEXT/UTF8
  149. Codec ID/Info                            : UTF-8 Plain Text
  150. Duration                                 : 1 h 55 min
  151. Bit rate                                 : 50 b/s
  152. Count of elements                        : 1369
  153. Stream size                              : 42.5 KiB (0%)
  154. Language                                 : German
  155. Default                                  : No
  156. Forced                                   : No
  157.  
  158. Text #8
  159. ID                                       : 10
  160. Format                                   : UTF-8
  161. Codec ID                                 : S_TEXT/UTF8
  162. Codec ID/Info                            : UTF-8 Plain Text
  163. Duration                                 : 1 h 55 min
  164. Bit rate                                 : 86 b/s
  165. Count of elements                        : 1430
  166. Stream size                              : 73.0 KiB (0%)
  167. Language                                 : Greek
  168. Default                                  : No
  169. Forced                                   : No
  170.  
  171. Text #9
  172. ID                                       : 11
  173. Format                                   : UTF-8
  174. Codec ID                                 : S_TEXT/UTF8
  175. Codec ID/Info                            : UTF-8 Plain Text
  176. Duration                                 : 1 h 55 min
  177. Bit rate                                 : 49 b/s
  178. Count of elements                        : 1422
  179. Stream size                              : 41.8 KiB (0%)
  180. Language                                 : Spanish
  181. Default                                  : No
  182. Forced                                   : No
  183.  
  184. Text #10
  185. ID                                       : 12
  186. Format                                   : UTF-8
  187. Codec ID                                 : S_TEXT/UTF8
  188. Codec ID/Info                            : UTF-8 Plain Text
  189. Duration                                 : 1 h 55 min
  190. Bit rate                                 : 48 b/s
  191. Count of elements                        : 1390
  192. Stream size                              : 40.6 KiB (0%)
  193. Title                                    : Europe
  194. Language                                 : Spanish
  195. Default                                  : No
  196. Forced                                   : No
  197.  
  198. Text #11
  199. ID                                       : 13
  200. Format                                   : UTF-8
  201. Codec ID                                 : S_TEXT/UTF8
  202. Codec ID/Info                            : UTF-8 Plain Text
  203. Duration                                 : 1 h 55 min
  204. Bit rate                                 : 48 b/s
  205. Count of elements                        : 1198
  206. Stream size                              : 40.7 KiB (0%)
  207. Language                                 : Finnish
  208. Default                                  : No
  209. Forced                                   : No
  210.  
  211. Text #12
  212. ID                                       : 14
  213. Format                                   : UTF-8
  214. Codec ID                                 : S_TEXT/UTF8
  215. Codec ID/Info                            : UTF-8 Plain Text
  216. Duration                                 : 1 h 55 min
  217. Bit rate                                 : 52 b/s
  218. Count of elements                        : 1426
  219. Stream size                              : 44.3 KiB (0%)
  220. Language                                 : French
  221. Default                                  : No
  222. Forced                                   : No
  223.  
  224. Text #13
  225. ID                                       : 15
  226. Format                                   : UTF-8
  227. Codec ID                                 : S_TEXT/UTF8
  228. Codec ID/Info                            : UTF-8 Plain Text
  229. Duration                                 : 1 h 55 min
  230. Bit rate                                 : 79 b/s
  231. Count of elements                        : 1408
  232. Stream size                              : 67.0 KiB (0%)
  233. Language                                 : Hebrew
  234. Default                                  : No
  235. Forced                                   : No
  236.  
  237. Text #14
  238. ID                                       : 16
  239. Format                                   : UTF-8
  240. Codec ID                                 : S_TEXT/UTF8
  241. Codec ID/Info                            : UTF-8 Plain Text
  242. Duration                                 : 1 h 55 min
  243. Bit rate                                 : 47 b/s
  244. Count of elements                        : 1429
  245. Stream size                              : 39.9 KiB (0%)
  246. Language                                 : Croatian
  247. Default                                  : No
  248. Forced                                   : No
  249.  
  250. Text #15
  251. ID                                       : 17
  252. Format                                   : UTF-8
  253. Codec ID                                 : S_TEXT/UTF8
  254. Codec ID/Info                            : UTF-8 Plain Text
  255. Duration                                 : 1 h 55 min
  256. Bit rate                                 : 50 b/s
  257. Count of elements                        : 1369
  258. Stream size                              : 42.4 KiB (0%)
  259. Language                                 : Hungarian
  260. Default                                  : No
  261. Forced                                   : No
  262.  
  263. Text #16
  264. ID                                       : 18
  265. Format                                   : UTF-8
  266. Codec ID                                 : S_TEXT/UTF8
  267. Codec ID/Info                            : UTF-8 Plain Text
  268. Duration                                 : 1 h 55 min
  269. Bit rate                                 : 50 b/s
  270. Count of elements                        : 1405
  271. Stream size                              : 42.4 KiB (0%)
  272. Language                                 : Indonesian
  273. Default                                  : No
  274. Forced                                   : No
  275.  
  276. Text #17
  277. ID                                       : 19
  278. Format                                   : UTF-8
  279. Codec ID                                 : S_TEXT/UTF8
  280. Codec ID/Info                            : UTF-8 Plain Text
  281. Duration                                 : 1 h 55 min
  282. Bit rate                                 : 49 b/s
  283. Count of elements                        : 1324
  284. Stream size                              : 42.0 KiB (0%)
  285. Language                                 : Italian
  286. Default                                  : No
  287. Forced                                   : No
  288.  
  289. Text #18
  290. ID                                       : 20
  291. Format                                   : UTF-8
  292. Codec ID                                 : S_TEXT/UTF8
  293. Codec ID/Info                            : UTF-8 Plain Text
  294. Duration                                 : 1 h 55 min
  295. Bit rate                                 : 45 b/s
  296. Count of elements                        : 1328
  297. Stream size                              : 38.2 KiB (0%)
  298. Language                                 : Japanese
  299. Default                                  : No
  300. Forced                                   : No
  301.  
  302. Text #19
  303. ID                                       : 21
  304. Format                                   : UTF-8
  305. Codec ID                                 : S_TEXT/UTF8
  306. Codec ID/Info                            : UTF-8 Plain Text
  307. Duration                                 : 1 h 55 min
  308. Bit rate                                 : 60 b/s
  309. Count of elements                        : 1416
  310. Stream size                              : 50.7 KiB (0%)
  311. Language                                 : Korean
  312. Default                                  : No
  313. Forced                                   : No
  314.  
  315. Text #20
  316. ID                                       : 22
  317. Format                                   : UTF-8
  318. Codec ID                                 : S_TEXT/UTF8
  319. Codec ID/Info                            : UTF-8 Plain Text
  320. Duration                                 : 1 h 55 min
  321. Bit rate                                 : 50 b/s
  322. Count of elements                        : 1378
  323. Stream size                              : 42.2 KiB (0%)
  324. Language                                 : Malay
  325. Default                                  : No
  326. Forced                                   : No
  327.  
  328. Text #21
  329. ID                                       : 23
  330. Format                                   : UTF-8
  331. Codec ID                                 : S_TEXT/UTF8
  332. Codec ID/Info                            : UTF-8 Plain Text
  333. Duration                                 : 1 h 55 min
  334. Bit rate                                 : 49 b/s
  335. Count of elements                        : 1265
  336. Stream size                              : 41.3 KiB (0%)
  337. Language                                 : Norwegian Bokmal
  338. Default                                  : No
  339. Forced                                   : No
  340.  
  341. Text #22
  342. ID                                       : 24
  343. Format                                   : UTF-8
  344. Codec ID                                 : S_TEXT/UTF8
  345. Codec ID/Info                            : UTF-8 Plain Text
  346. Duration                                 : 1 h 55 min
  347. Bit rate                                 : 47 b/s
  348. Count of elements                        : 1167
  349. Stream size                              : 39.7 KiB (0%)
  350. Language                                 : Dutch
  351. Default                                  : No
  352. Forced                                   : No
  353.  
  354. Text #23
  355. ID                                       : 25
  356. Format                                   : UTF-8
  357. Codec ID                                 : S_TEXT/UTF8
  358. Codec ID/Info                            : UTF-8 Plain Text
  359. Duration                                 : 1 h 54 min
  360. Bit rate                                 : 48 b/s
  361. Count of elements                        : 1407
  362. Stream size                              : 40.8 KiB (0%)
  363. Language                                 : Polish
  364. Default                                  : No
  365. Forced                                   : No
  366.  
  367. Text #24
  368. ID                                       : 26
  369. Format                                   : UTF-8
  370. Codec ID                                 : S_TEXT/UTF8
  371. Codec ID/Info                            : UTF-8 Plain Text
  372. Duration                                 : 1 h 55 min
  373. Bit rate                                 : 54 b/s
  374. Count of elements                        : 1376
  375. Stream size                              : 45.5 KiB (0%)
  376. Language                                 : Portuguese
  377. Default                                  : No
  378. Forced                                   : No
  379.  
  380. Text #25
  381. ID                                       : 27
  382. Format                                   : UTF-8
  383. Codec ID                                 : S_TEXT/UTF8
  384. Codec ID/Info                            : UTF-8 Plain Text
  385. Duration                                 : 1 h 55 min
  386. Bit rate                                 : 50 b/s
  387. Count of elements                        : 1342
  388. Stream size                              : 42.5 KiB (0%)
  389. Title                                    : Brazil
  390. Language                                 : Portuguese
  391. Default                                  : No
  392. Forced                                   : No
  393.  
  394. Text #26
  395. ID                                       : 28
  396. Format                                   : UTF-8
  397. Codec ID                                 : S_TEXT/UTF8
  398. Codec ID/Info                            : UTF-8 Plain Text
  399. Duration                                 : 1 h 55 min
  400. Bit rate                                 : 56 b/s
  401. Count of elements                        : 1319
  402. Stream size                              : 47.3 KiB (0%)
  403. Language                                 : Romanian
  404. Default                                  : No
  405. Forced                                   : No
  406.  
  407. Text #27
  408. ID                                       : 29
  409. Format                                   : UTF-8
  410. Codec ID                                 : S_TEXT/UTF8
  411. Codec ID/Info                            : UTF-8 Plain Text
  412. Duration                                 : 1 h 55 min
  413. Bit rate                                 : 80 b/s
  414. Count of elements                        : 1385
  415. Stream size                              : 67.4 KiB (0%)
  416. Language                                 : Russian
  417. Default                                  : No
  418. Forced                                   : No
  419.  
  420. Text #28
  421. ID                                       : 30
  422. Format                                   : UTF-8
  423. Codec ID                                 : S_TEXT/UTF8
  424. Codec ID/Info                            : UTF-8 Plain Text
  425. Duration                                 : 1 h 55 min
  426. Bit rate                                 : 51 b/s
  427. Count of elements                        : 1237
  428. Stream size                              : 43.2 KiB (0%)
  429. Language                                 : Swedish
  430. Default                                  : No
  431. Forced                                   : No
  432.  
  433. Text #29
  434. ID                                       : 31
  435. Format                                   : UTF-8
  436. Codec ID                                 : S_TEXT/UTF8
  437. Codec ID/Info                            : UTF-8 Plain Text
  438. Duration                                 : 1 h 55 min
  439. Bit rate                                 : 134 b/s
  440. Count of elements                        : 1415
  441. Stream size                              : 113 KiB (0%)
  442. Language                                 : Thai
  443. Default                                  : No
  444. Forced                                   : No
  445.  
  446. Text #30
  447. ID                                       : 32
  448. Format                                   : UTF-8
  449. Codec ID                                 : S_TEXT/UTF8
  450. Codec ID/Info                            : UTF-8 Plain Text
  451. Duration                                 : 1 h 55 min
  452. Bit rate                                 : 52 b/s
  453. Count of elements                        : 1411
  454. Stream size                              : 43.9 KiB (0%)
  455. Language                                 : Turkish
  456. Default                                  : No
  457. Forced                                   : No
  458.  
  459. Text #31
  460. ID                                       : 33
  461. Format                                   : UTF-8
  462. Codec ID                                 : S_TEXT/UTF8
  463. Codec ID/Info                            : UTF-8 Plain Text
  464. Duration                                 : 1 h 55 min
  465. Bit rate                                 : 84 b/s
  466. Count of elements                        : 1410
  467. Stream size                              : 71.0 KiB (0%)
  468. Language                                 : Ukrainian
  469. Default                                  : No
  470. Forced                                   : No
  471.  
  472. Text #32
  473. ID                                       : 34
  474. Format                                   : UTF-8
  475. Codec ID                                 : S_TEXT/UTF8
  476. Codec ID/Info                            : UTF-8 Plain Text
  477. Duration                                 : 1 h 55 min
  478. Bit rate                                 : 73 b/s
  479. Count of elements                        : 1421
  480. Stream size                              : 62.0 KiB (0%)
  481. Language                                 : Vietnamese
  482. Default                                  : No
  483. Forced                                   : No
  484.  
  485. Text #33
  486. ID                                       : 35
  487. Format                                   : UTF-8
  488. Codec ID                                 : S_TEXT/UTF8
  489. Codec ID/Info                            : UTF-8 Plain Text
  490. Duration                                 : 1 h 55 min
  491. Bit rate                                 : 55 b/s
  492. Count of elements                        : 1424
  493. Stream size                              : 46.3 KiB (0%)
  494. Title                                    : Simplified
  495. Language                                 : Chinese
  496. Default                                  : No
  497. Forced                                   : No
  498.  
  499. Text #34
  500. ID                                       : 36
  501. Format                                   : UTF-8
  502. Codec ID                                 : S_TEXT/UTF8
  503. Codec ID/Info                            : UTF-8 Plain Text
  504. Duration                                 : 1 h 55 min
  505. Bit rate                                 : 49 b/s
  506. Count of elements                        : 1487
  507. Stream size                              : 41.4 KiB (0%)
  508. Title                                    : Traditional
  509. Language                                 : Chinese
  510. Default                                  : No
  511. Forced                                   : No
  512.  
  513. Text #35
  514. ID                                       : 37
  515. Format                                   : UTF-8
  516. Codec ID                                 : S_TEXT/UTF8
  517. Codec ID/Info                            : UTF-8 Plain Text
  518. Duration                                 : 1 h 54 min
  519. Bit rate                                 : 73 b/s
  520. Count of elements                        : 1870
  521. Stream size                              : 61.5 KiB (0%)
  522. Title                                    : Brazil (SDH)
  523. Language                                 : Portuguese
  524. Default                                  : No
  525. Forced                                   : No
Advertisement
Advertisement
Advertisement
RAW Paste Data Copied
Advertisement