SHARE
TWEET

Untitled

a guest Sep 15th, 2015 84 Never
Not a member of Pastebin yet? Sign Up, it unlocks many cool features!
  1. C:\Program Files\ffmpeg>ffmpeg -i I:\PRIVATE\AVCHD\BDMV\STREAM\00000.MTS -c copy d:\bb.mts
  2. ffmpeg version N-75275-gd13a2df Copyright (c) 2000-2015 the FFmpeg developers
  3.   built with gcc 4.9.3 (GCC)
  4.   configuration: --enable-gpl --enable-version3 --disable-w32threads --enable-avisynth --enable-bzli
  5. b --enable-fontconfig --enable-frei0r --enable-gnutls --enable-iconv --enable-libass --enable-libblu
  6. ray --enable-libbs2b --enable-libcaca --enable-libdcadec --enable-libfreetype --enable-libgme --enab
  7. le-libgsm --enable-libilbc --enable-libmodplug --enable-libmp3lame --enable-libopencore-amrnb --enab
  8. le-libopencore-amrwb --enable-libopenjpeg --enable-libopus --enable-librtmp --enable-libschroedinger
  9.  --enable-libsoxr --enable-libspeex --enable-libtheora --enable-libtwolame --enable-libvidstab --ena
  10. ble-libvo-aacenc --enable-libvo-amrwbenc --enable-libvorbis --enable-libvpx --enable-libwavpack --en
  11. able-libwebp --enable-libx264 --enable-libx265 --enable-libxavs --enable-libxvid --enable-lzma --ena
  12. ble-decklink --enable-zlib
  13.   libavutil      55.  2.100 / 55.  2.100
  14.   libavcodec     57.  1.100 / 57.  1.100
  15.   libavformat    57.  0.100 / 57.  0.100
  16.   libavdevice    57.  0.100 / 57.  0.100
  17.   libavfilter     6.  3.100 /  6.  3.100
  18.   libswscale      4.  0.100 /  4.  0.100
  19.   libswresample   2.  0.100 /  2.  0.100
  20.   libpostproc    54.  0.100 / 54.  0.100
  21. Input #0, mpegts, from 'I:\PRIVATE\AVCHD\BDMV\STREAM\00000.MTS':
  22.   Duration: 00:00:30.72, start: 1.020000, bitrate: 28121 kb/s
  23.   Program 1
  24.     Stream #0:0[0x1011]: Video: h264 (High) (HDPR / 0x52504448), yuv420p, 1920x1080 [SAR 1:1 DAR 16:
  25. 9], 50 fps, 50 tbr, 90k tbn, 100 tbc
  26.     Stream #0:1[0x1100]: Audio: pcm_bluray (HDPR / 0x52504448), 48000 Hz, stereo, s16, 1536 kb/s
  27.     Stream #0:2[0x1200]: Subtitle: hdmv_pgs_subtitle ([144][0][0][0] / 0x0090), 1920x1080
  28. Output #0, mpegts, to 'd:\bb.mts':
  29.   Metadata:
  30.     encoder         : Lavf57.0.100
  31.     Stream #0:0: Video: h264 (HDPR / 0x52504448), yuv420p, 1920x1080 [SAR 1:1 DAR 16:9], q=2-31, 50
  32. fps, 50 tbr, 90k tbn, 90k tbc
  33.     Stream #0:1: Audio: pcm_bluray (HDPR / 0x52504448), 48000 Hz, stereo, 1536 kb/s
  34. Stream mapping:
  35.   Stream #0:0 -> #0:0 (copy)
  36.   Stream #0:1 -> #0:1 (copy)
  37. Press [q] to stop, [?] for help
  38. frame= 1536 fps=0.0 q=-1.0 Lsize=  107550kB time=00:00:30.72 bitrate=28679.9kbits/s
  39. video:93709kB audio:5784kB subtitle:0kB other streams:0kB global headers:0kB muxing overhead: 8.0977
  40. 54%
RAW Paste Data
We use cookies for various purposes including analytics. By continuing to use Pastebin, you agree to our use of cookies as described in the Cookies Policy. OK, I Understand
 
Top