Guest User

Avengers: Endgame 2019 1080p Remux

a guest
Aug 3rd, 2019
415
Never
Not a member of Pastebin yet? Sign Up, it unlocks many cool features!
  1. General
  2. Unique ID : 247197885770178699391718340100389148103 (0xB9F894BEFF85C7A85DC4CC8C7A3915C7)
  3. Complete name : C:\Users\XXX\Desktop\PhimHD\Avengers Endgame 2019 ViE 1080p Blu-ray Remux AVC TrueHD Atmos 7.1-HDT.mkv
  4. Format : Matroska
  5. Format version : Version 4
  6. File size : 43.3 GiB
  7. Duration : 3 h 1 min
  8. Overall bit rate mode : Variable
  9. Overall bit rate : 34.2 Mb/s
  10. Movie name : Avengers: Endgame 2019 ViE 1080p Blu-ray Remux AVC TrueHD Atmos 7.1-HDT
  11. Encoded date : UTC 2019-08-03 03:05:58
  12. Writing application : mkvmerge v35.0.0 ('All The Love In The World') 64-bit
  13. Writing library : libebml v1.3.9 + libmatroska v1.5.2
  14. Cover : Yes
  15. Attachments : Cover.jpg
  16.  
  17. Video
  18. ID : 1
  19. Format : AVC
  20. Format/Info : Advanced Video Codec
  21. Format profile : High@L4.1
  22. Format settings : CABAC / 4 Ref Frames
  23. Format settings, CABAC : Yes
  24. Format settings, Reference frames : 4 frames
  25. Codec ID : V_MPEG4/ISO/AVC
  26. Duration : 3 h 1 min
  27. Bit rate mode : Variable
  28. Bit rate : 23.2 Mb/s
  29. Maximum bit rate : 34.0 Mb/s
  30. Width : 1 920 pixels
  31. Height : 1 080 pixels
  32. Display aspect ratio : 16:9
  33. Frame rate mode : Constant
  34. Frame rate : 23.976 (24000/1001) FPS
  35. Color space : YUV
  36. Chroma subsampling : 4:2:0
  37. Bit depth : 8 bits
  38. Scan type : Progressive
  39. Bits/(Pixel*Frame) : 0.466
  40. Stream size : 29.3 GiB (68%)
  41. Title : Avengers: Endgame 2019 ViE 1080p Blu-ray Remux AVC TrueHD Atmos 7.1-HDT
  42. Language : English
  43. Default : Yes
  44. Forced : No
  45.  
  46. Audio #1
  47. ID : 2
  48. Format : MLP FBA 16-ch
  49. Format/Info : Meridian Lossless Packing FBA with 16-channel presentation
  50. Commercial name : Dolby TrueHD with Dolby Atmos
  51. Codec ID : A_TRUEHD
  52. Duration : 3 h 1 min
  53. Bit rate mode : Variable
  54. Bit rate : 4 777 kb/s
  55. Maximum bit rate : 8 430 kb/s
  56. Channel(s) : 8 channels
  57. Channel layout : L R C LFE Ls Rs Lb Rb
  58. Sampling rate : 48.0 kHz
  59. Frame rate : 1 200.000 FPS (40 SPF)
  60. Compression mode : Lossless
  61. Delay relative to video : 1 ms
  62. Stream size : 6.05 GiB (14%)
  63. Language : English
  64. Default : Yes
  65. Forced : No
  66. Number of dynamic objects : 13
  67. Bed channel count : 1 channel
  68. Bed channel configuration : LFE
  69.  
  70. Audio #2
  71. ID : 3
  72. Format : AC-3
  73. Format/Info : Audio Coding 3
  74. Commercial name : Dolby Digital
  75. Codec ID : A_AC3
  76. Duration : 3 h 1 min
  77. Bit rate mode : Constant
  78. Bit rate : 640 kb/s
  79. Channel(s) : 6 channels
  80. Channel layout : L R C LFE Ls Rs
  81. Sampling rate : 48.0 kHz
  82. Frame rate : 31.250 FPS (1536 SPF)
  83. Bit depth : 16 bits
  84. Compression mode : Lossy
  85. Delay relative to video : 25 ms
  86. Stream size : 829 MiB (2%)
  87. Language : English
  88. Service kind : Complete Main
  89. Default : No
  90. Forced : No
  91.  
  92. Audio #3
  93. ID : 4
  94. Format : DTS ES XLL
  95. Format/Info : Digital Theater Systems
  96. Commercial name : DTS-HD Master Audio
  97. Codec ID : A_DTS
  98. Duration : 3 h 1 min
  99. Bit rate mode : Variable
  100. Bit rate : 4 886 kb/s
  101. Channel(s) : 8 channels
  102. Channel layout : C L R Ls Rs LFE Lb Rb
  103. Sampling rate : 48.0 kHz
  104. Frame rate : 93.750 FPS (512 SPF)
  105. Bit depth : 24 bits
  106. Compression mode : Lossless
  107. Stream size : 6.20 GiB (14%)
  108. Language : Vietnamese
  109. Default : No
  110. Forced : No
  111.  
  112. Audio #4
  113. ID : 5
  114. Format : AC-3
  115. Format/Info : Audio Coding 3
  116. Commercial name : Dolby Digital
  117. Codec ID : A_AC3
  118. Duration : 3 h 1 min
  119. Bit rate mode : Constant
  120. Bit rate : 640 kb/s
  121. Channel(s) : 6 channels
  122. Channel layout : L R C LFE Ls Rs
  123. Sampling rate : 48.0 kHz
  124. Frame rate : 31.250 FPS (1536 SPF)
  125. Bit depth : 16 bits
  126. Compression mode : Lossy
  127. Stream size : 831 MiB (2%)
  128. Language : Vietnamese
  129. Service kind : Complete Main
  130. Default : No
  131. Forced : No
  132.  
  133. Text #1
  134. ID : 6
  135. Format : UTF-8
  136. Codec ID : S_TEXT/UTF8
  137. Codec ID/Info : UTF-8 Plain Text
  138. Duration : 2 h 49 min
  139. Bit rate : 71 b/s
  140. Count of elements : 2375
  141. Stream size : 89.2 KiB (0%)
  142. Language : Vietnamese
  143. Default : Yes
  144. Forced : Yes
  145.  
  146. Text #2
  147. ID : 7
  148. Format : PGS
  149. Muxing mode : zlib
  150. Codec ID : S_HDMV/PGS
  151. Codec ID/Info : Picture based subtitle format used on BDs/HD-DVDs
  152. Duration : 3 h 0 min
  153. Bit rate : 33.9 kb/s
  154. Count of elements : 5266
  155. Stream size : 43.8 MiB (0%)
  156. Language : English
  157. Default : No
  158. Forced : No
  159.  
  160. Text #3
  161. ID : 8
  162. Format : PGS
  163. Muxing mode : zlib
  164. Codec ID : S_HDMV/PGS
  165. Codec ID/Info : Picture based subtitle format used on BDs/HD-DVDs
  166. Duration : 2 h 52 min
  167. Bit rate : 28.5 kb/s
  168. Count of elements : 4446
  169. Stream size : 35.0 MiB (0%)
  170. Language : French
  171. Default : No
  172. Forced : No
  173.  
  174. Text #4
  175. ID : 9
  176. Format : PGS
  177. Muxing mode : zlib
  178. Codec ID : S_HDMV/PGS
  179. Codec ID/Info : Picture based subtitle format used on BDs/HD-DVDs
  180. Duration : 2 h 47 min
  181. Bit rate : 31.0 kb/s
  182. Count of elements : 4394
  183. Stream size : 37.3 MiB (0%)
  184. Language : Spanish
  185. Default : No
  186. Forced : No
  187.  
  188. Menu
  189. 00:00:00.000 : en:One Last Surprise
  190. 00:08:05.902 : en:"To The Garden"
  191. 00:20:01.700 : en:Five Years Later
  192. 00:26:15.282 : en:"A Time Heist"
  193. 00:36:57.173 : en:"Time Travel Do-Over"
  194. 00:43:20.598 : en:"I Fiexed It"
  195. 00:48:44.171 : en:Assembling the Avengers
  196. 00:57:36.745 : en:"Get The Stones, Get Them Back"
  197. 01:07:12.612 : en:Rogue Transmission
  198. 01:16:02.516 : en:New York, 2012
  199. 01:26:25.430 : en:Asgard, 2013
  200. 01:32:20.118 : en:Morag, 2014
  201. 01:38:55.805 : en:New Jersey, 1970
  202. 01:48:12.361 : en:Vormir, 2014
  203. 01:57:26.915 : en:"I Was Made For This"
  204. 02:05:00.243 : en:Thanos' Return
  205. 02:15:06.432 : en:Avengers Assemble
  206. 02:25:50.450 : en:One of The 14,000,605
  207. 02:34:37.935 : en:"Part of The Journey Is The End"
  208. 02:43:03.899 : en:"Clip All the Branches"
  209. 02:49:05.344 : en:End Credits
RAW Paste Data