Secasa

holmes

Sep 2nd, 2014
331
Never
Not a member of Pastebin yet? Sign Up, it unlocks many cool features!
  1. Format : Matroska
  2. Format version : Version 4 / Version 2
  3. File size : 5.13 GiB
  4. Duration : 2h 5mn
  5. Overall bit rate : 5 857 Kbps
  6. Movie name : La vida privada de Sherlock Holmes [Sfrd]
  7. Encoded date : UTC 2014-09-02 08:08:21
  8. Writing application : mkvmerge v7.0.0 ('Where We Going') 64bit built on Jun 9 2014 15:16:27
  9. Writing library : libebml v1.3.0 + libmatroska v1.4.1
  10. DURATION : 02:02:58.370000000
  11. NUMBER_OF_FRAMES : 1557
  12. NUMBER_OF_BYTES : 91160
  13. _STATISTICS_WRITING_APP : mkvmerge v7.0.0 ('Where We Going') 64bit built on Jun 9 2014 15:16:27
  14. _STATISTICS_WRITING_DATE_UTC : 2014-09-02 08:08:21
  15. _STATISTICS_TAGS : BPS DURATION NUMBER_OF_FRAMES NUMBER_OF_BYTES
  16.  
  17. Video
  18. ID : 1
  19. Format : AVC
  20. Format/Info : Advanced Video Codec
  21. Format profile : High@L4.0
  22. Format settings, CABAC : Yes
  23. Format settings, ReFrames : 3 frames
  24. Codec ID : V_MPEG4/ISO/AVC
  25. Duration : 2h 5mn
  26. Bit rate : 4 876 Kbps
  27. Width : 1 918 pixels
  28. Height : 820 pixels
  29. Display aspect ratio : 2.35:1
  30. Frame rate mode : Constant
  31. Frame rate : 23.976 fps
  32. Color space : YUV
  33. Chroma subsampling : 4:2:0
  34. Bit depth : 8 bits
  35. Scan type : Progressive
  36. Bits/(Pixel*Frame) : 0.129
  37. Stream size : 4.27 GiB (83%)
  38. Title : La vida privada de Sherlock Holmes [Sfrd]
  39. Writing library : x264 core 130 r2273 b3065e6
  40. Encoding settings : cabac=1 / ref=4 / deblock=1:-2:-2 / analyse=0x3:0x113 / me=hex / subme=9 / psy=1 / psy_rd=1,00:0,15 / mixed_ref=1 / me_range=16 / chroma_me=1 / trellis=2 / 8x8dct=1 / cqm=0 / deadzone=21,11 / fast_pskip=1 / chroma_qp_offset=-3 / threads=12 / lookahead_threads=1 / sliced_threads=0 / nr=0 / decimate=1 / interlaced=0 / bluray_compat=0 / constrained_intra=0 / bframes=4 / b_pyramid=1 / b_adapt=2 / b_bias=0 / direct=1 / weightb=1 / open_gop=0 / weightp=1 / keyint=240 / keyint_min=24 / scenecut=40 / intra_refresh=0 / rc_lookahead=40 / rc=crf / mbtree=1 / crf=23,0 / qcomp=0,60 / qpmin=0 / qpmax=69 / qpstep=4 / ip_ratio=1,40 / aq=1:1,00
  41. Language : English
  42. Default : Yes
  43. Forced : No
  44. Color primaries : BT.709
  45. Transfer characteristics : BT.709
  46. Matrix coefficients : BT.709
  47.  
  48. Audio #1
  49. ID : 2
  50. Format : AC-3
  51. Format/Info : Audio Coding 3
  52. Mode extension : CM (complete main)
  53. Format settings, Endianness : Big
  54. Codec ID : A_AC3
  55. Duration : 2h 5mn
  56. Bit rate mode : Constant
  57. Bit rate : 224 Kbps
  58. Channel(s) : 2 channels
  59. Channel positions : Front: L R
  60. Sampling rate : 48.0 KHz
  61. Bit depth : 16 bits
  62. Compression mode : Lossy
  63. Stream size : 201 MiB (4%)
  64. Title : AC3 Castellano
  65. Language : Spanish
  66. Default : Yes
  67. Forced : No
  68.  
  69. Audio #2
  70. ID : 3
  71. Format : AC-3
  72. Format/Info : Audio Coding 3
  73. Mode extension : CM (complete main)
  74. Format settings, Endianness : Big
  75. Codec ID : A_AC3
  76. Duration : 2h 5mn
  77. Bit rate mode : Constant
  78. Bit rate : 640 Kbps
  79. Channel(s) : 2 channels
  80. Channel positions : Front: L R
  81. Sampling rate : 48.0 KHz
  82. Bit depth : 16 bits
  83. Compression mode : Lossy
  84. Stream size : 574 MiB (11%)
  85. Title : AC3 Ingles
  86. Language : English
  87. Default : No
  88. Forced : No
  89.  
  90. Text #1
  91. ID : 4
  92. Format : SSA
  93. Codec ID : S_TEXT/SSA
  94. Codec ID/Info : Sub Station Alpha
  95. Compression mode : Lossless
  96. Title : Castellano Forzados
  97. Language : Spanish
  98. Default : Yes
  99. Forced : Yes
  100.  
  101. Text #2
  102. ID : 5
  103. Format : SSA
  104. Codec ID : S_TEXT/SSA
  105. Codec ID/Info : Sub Station Alpha
  106. Compression mode : Lossless
  107. Title : Castellano
  108. Language : Spanish
  109. Default : No
  110. Forced : No
  111.  
  112. Text #3
  113. ID : 6
  114. Format : SSA
  115. Codec ID : S_TEXT/SSA
  116. Codec ID/Info : Sub Station Alpha
  117. Compression mode : Lossless
  118. Title : Ingles
  119. Language : English
  120. Default : No
  121. Forced : No
RAW Paste Data