SHARE
TWEET

[Kawaii] Stella no Mahou - 03 [A653A87C].mkv

HYBRID_BEING Nov 12th, 2016 66 Never
Not a member of Pastebin yet? Sign Up, it unlocks many cool features!
  1. General
  2. Unique ID                                : 193601367216802363995724161091650056563 (0x91A6445CB6FA3AE7A0C92CB53C81F173)
  3. Complete name                            : [Kawaii] Stella no Mahou - 03 [A653A87C].mkv
  4. Format                                   : Matroska
  5. Format version                           : Version 4 / Version 2
  6. File size                                : 286 MiB
  7. Duration                                 : 23mn 40s
  8. Overall bit rate                         : 1 692 Kbps
  9. Encoded date                             : UTC 2016-10-25 05:55:49
  10. Writing application                      : mkvmerge v9.1.0 ('Little Earthquakes') 64bit
  11. Writing library                          : libebml v1.3.3 + libmatroska v1.4.4
  12. Attachments                              : coders_crux.ttf / dot_digital-7.ttf / quadaptor.ttf / NEUROPOL X RG.TTF / ARTBRUSH.TTF
  13.  
  14. Video
  15. ID                                       : 1
  16. Format                                   : AVC
  17. Format/Info                              : Advanced Video Codec
  18. Format profile                           : High 10@L5
  19. Format settings, CABAC                   : Yes
  20. Format settings, ReFrames                : 16 frames
  21. Codec ID                                 : V_MPEG4/ISO/AVC
  22. Duration                                 : 23mn 40s
  23. Bit rate                                 : 1 435 Kbps
  24. Width                                    : 1 280 pixels
  25. Height                                   : 720 pixels
  26. Display aspect ratio                     : 16:9
  27. Frame rate mode                          : Constant
  28. Frame rate                               : 23.976 (24000/1001) fps
  29. Color space                              : YUV
  30. Chroma subsampling                       : 4:2:0
  31. Bit depth                                : 10 bits
  32. Scan type                                : Progressive
  33. Bits/(Pixel*Frame)                       : 0.065
  34. Stream size                              : 243 MiB (85%)
  35. Writing library                          : x264 core 129 r2230 1cffe9f
  36. Encoding settings                        : cabac=1 / ref=16 / deblock=1:1:1 / analyse=0x3:0x133 / me=umh / subme=9 / psy=1 / psy_rd=1.00:0.00 / mixed_ref=1 / me_range=32 / chroma_me=1 / trellis=2 / 8x8dct=1 / cqm=0 / deadzone=21,11 / fast_pskip=0 / chroma_qp_offset=-4 / threads=18 / lookahead_threads=3 / sliced_threads=0 / nr=0 / decimate=1 / interlaced=0 / bluray_compat=0 / constrained_intra=0 / bframes=16 / b_pyramid=2 / b_adapt=2 / b_bias=0 / direct=1 / weightb=1 / open_gop=0 / weightp=2 / keyint=350 / keyint_min=30 / scenecut=40 / intra_refresh=0 / rc_lookahead=60 / rc=crf / mbtree=1 / crf=18.0 / qcomp=0.80 / qpmin=10 / qpmax=51 / qpstep=4 / ip_ratio=1.40 / aq=1:1.00
  37. Language                                 : English
  38. Default                                  : Yes
  39. Forced                                   : No
  40. Color range                              : Limited
  41. Color primaries                          : BT.601 PAL
  42. Transfer characteristics                 : BT.470 System B, BT.470 System G
  43. Matrix coefficients                      : BT.601
  44.  
  45. Audio
  46. ID                                       : 2
  47. Format                                   : AAC
  48. Format/Info                              : Advanced Audio Codec
  49. Format profile                           : LC
  50. Codec ID                                 : A_AAC
  51. Duration                                 : 23mn 39s
  52. Bit rate                                 : 252 Kbps
  53. Channel(s)                               : 2 channels
  54. Channel positions                        : Front: L R
  55. Sampling rate                            : 48.0 KHz
  56. Frame rate                               : 46.875 fps (1024 spf)
  57. Compression mode                         : Lossy
  58. Stream size                              : 42.7 MiB (15%)
  59. Default                                  : Yes
  60. Forced                                   : No
  61.  
  62. Text #1
  63. ID                                       : 3
  64. Format                                   : ASS
  65. Codec ID                                 : S_TEXT/ASS
  66. Codec ID/Info                            : Advanced Sub Station Alpha
  67. Duration                                 : 23mn 32s
  68. Bit rate                                 : 210 bps
  69. Count of elements                        : 508
  70. Compression mode                         : Lossless
  71. Stream size                              : 36.2 KiB (0%)
  72. Title                                    : English
  73. Language                                 : English
  74. Default                                  : Yes
  75. Forced                                   : No
  76.  
  77. Text #2
  78. ID                                       : 4
  79. Format                                   : ASS
  80. Codec ID                                 : S_TEXT/ASS
  81. Codec ID/Info                            : Advanced Sub Station Alpha
  82. Duration                                 : 23mn 32s
  83. Bit rate                                 : 210 bps
  84. Count of elements                        : 508
  85. Compression mode                         : Lossless
  86. Stream size                              : 36.3 KiB (0%)
  87. Title                                    : English (Honorifics)
  88. Language                                 : English
  89. Default                                  : No
  90. Forced                                   : No
  91.  
  92. Menu
  93. 00:00:02.720                             : en:Intro
  94. 00:01:42.370                             : en:OP Song
  95. 00:03:11.960                             : en:Part A
  96. 00:13:35.960                             : en:Part B
  97. 00:21:31.680                             : en:ED Song
  98. 00:22:57.630                             : en:Epilogue
  99. 00:23:19.960                             : en:Next Episode Preview
  100. 00:23:34.970                             : en:End Card
RAW Paste Data
We use cookies for various purposes including analytics. By continuing to use Pastebin, you agree to our use of cookies as described in the Cookies Policy. OK, I Understand
Top