GrabHD

Untitled

Mar 15th, 2020
103
Never
Not a member of Pastebin yet? Sign Up, it unlocks many cool features!
  1. Источник: Go.Karts.2020.720p.NF.WEB-DL.DDP5.1.x264-NTG
  2. General
  3. Unique ID : 174840077617340900518950292773978663820 (0x8388F95E5EBAF312A01A5CEFD4766B8C)
  4. Complete name : Go.Karts.2020.NF.WEB-DL.720p.mkv
  5. Format : Matroska
  6. Format version : Version 4
  7. File size : 2.85 GiB
  8. Duration : 1 h 43 min
  9. Overall bit rate mode : Variable
  10. Overall bit rate : 3 950 kb/s
  11. Encoded date : UTC 2020-03-13 10:15:56
  12. Writing application : mkvmerge v7.1.0 ('Good Love') 64bit built on Jul 27 2014 13:06:55
  13. Writing library : libebml v1.3.0 + libmatroska v1.4.1
  14.  
  15. Video
  16. ID : 1
  17. Format : AVC
  18. Format/Info : Advanced Video Codec
  19. Format profile : Main@L3.1
  20. Format settings : CABAC / 3 Ref Frames
  21. Format settings, CABAC : Yes
  22. Format settings, Reference fra : 3 frames
  23. Codec ID : V_MPEG4/ISO/AVC
  24. Duration : 1 h 43 min
  25. Bit rate mode : Variable
  26. Bit rate : 2 740 kb/s
  27. Maximum bit rate : 4 110 kb/s
  28. Width : 1 280 pixels
  29. Height : 720 pixels
  30. Display aspect ratio : 16:9
  31. Frame rate mode : Constant
  32. Frame rate : 24.000 FPS
  33. Color space : YUV
  34. Chroma subsampling : 4:2:0
  35. Bit depth : 8 bits
  36. Scan type : Progressive
  37. Bits/(Pixel*Frame) : 0.124
  38. Stream size : 1.92 GiB (68%)
  39. Writing library : x264 core 148 r2717 0d2410d
  40. Encoding settings : cabac=1 / ref=3 / deblock=1:0:0 / analyse=0x1:0x111 / me=umh / subme=10 / psy=1 / psy_rd=1.00:0.00 / mixed_ref=1 / me_range=24 / chroma_me=1 / trellis=2 / 8x8dct=0 / cqm=0 / deadzone=21,11 / fast_pskip=1 / chroma_qp_offset=-2 / threads=6 / lookahead_threads=1 / sliced_threads=0 / nr=0 / decimate=1 / interlaced=0 / bluray_compat=0 / stitchable=1 / constrained_intra=0 / bframes=2 / b_pyramid=0 / b_adapt=2 / b_bias=0 / direct=3 / weightb=1 / open_gop=0 / weightp=2 / keyint=250 / keyint_min=24 / scenecut=0 / intra_refresh=0 / rc_lookahead=48 / rc=2pass / mbtree=1 / bitrate=2740 / ratetol=1.0 / qcomp=0.50 / qpmin=6 / qpmax=51 / qpstep=4 / cplxblur=20.0 / qblur=0.5 / vbv_maxrate=4110 / vbv_bufsize=5480 / nal_hrd=vbr / filler=0 / ip_ratio=1.40 / aq=1:1.00
  41. Language : English
  42. Default : Yes
  43. Forced : No
  44.  
  45. Audio #1
  46. ID : 2
  47. Format : AC-3
  48. Format/Info : Audio Coding 3
  49. Commercial name : Dolby Digital
  50. Codec ID : A_AC3
  51. Duration : 1 h 43 min
  52. Bit rate mode : Constant
  53. Bit rate : 640 kb/s
  54. Channel(s) : 6 channels
  55. Channel layout : L R C LFE Ls Rs
  56. Sampling rate : 48.0 kHz
  57. Frame rate : 31.250 FPS (1536 SPF)
  58. Compression mode : Lossy
  59. Stream size : 472 MiB (16%)
  60. Title : DUB | Пифагор
  61. Language : Russian
  62. Service kind : Complete Main
  63. Default : Yes
  64. Forced : No
  65.  
  66. Audio #2
  67. ID : 3
  68. Format : E-AC-3
  69. Format/Info : Enhanced AC-3
  70. Commercial name : Dolby Digital Plus
  71. Codec ID : A_EAC3
  72. Duration : 1 h 43 min
  73. Bit rate mode : Constant
  74. Bit rate : 640 kb/s
  75. Channel(s) : 6 channels
  76. Channel layout : L R C LFE Ls Rs
  77. Sampling rate : 48.0 kHz
  78. Frame rate : 31.250 FPS (1536 SPF)
  79. Compression mode : Lossy
  80. Stream size : 472 MiB (16%)
  81. Language : English
  82. Service kind : Complete Main
  83. Default : No
  84. Forced : No
  85.  
  86. Text #1
  87. ID : 4
  88. Format : UTF-8
  89. Codec ID : S_TEXT/UTF8
  90. Codec ID/Info : UTF-8 Plain Text
  91. Duration : 1 h 39 min
  92. Bit rate : 1 b/s
  93. Count of elements : 24
  94. Stream size : 968 Bytes (0%)
  95. Title : Forced
  96. Language : Russian
  97. Default : Yes
  98. Forced : No
  99.  
  100. Text #2
  101. ID : 5
  102. Format : UTF-8
  103. Codec ID : S_TEXT/UTF8
  104. Codec ID/Info : UTF-8 Plain Text
  105. Duration : 1 h 35 min
  106. Bit rate : 81 b/s
  107. Count of elements : 1335
  108. Stream size : 57.2 KiB (0%)
  109. Language : Russian
  110. Default : No
  111. Forced : No
  112.  
  113. Text #3
  114. ID : 6
  115. Format : UTF-8
  116. Codec ID : S_TEXT/UTF8
  117. Codec ID/Info : UTF-8 Plain Text
  118. Duration : 1 h 36 min
  119. Bit rate : 59 b/s
  120. Count of elements : 1453
  121. Stream size : 41.9 KiB (0%)
  122. Language : English
  123. Default : No
  124. Forced : No
  125.  
  126. Text #4
  127. ID : 7
  128. Format : UTF-8
  129. Codec ID : S_TEXT/UTF8
  130. Codec ID/Info : UTF-8 Plain Text
  131. Duration : 1 h 36 min
  132. Bit rate : 66 b/s
  133. Count of elements : 1656
  134. Stream size : 46.8 KiB (0%)
  135. Title : SDH
  136. Language : English
  137. Default : No
  138. Forced : No
  139.  
  140. Text #5
  141. ID : 8
  142. Format : UTF-8
  143. Codec ID : S_TEXT/UTF8
  144. Codec ID/Info : UTF-8 Plain Text
  145. Duration : 1 h 35 min
  146. Bit rate : 54 b/s
  147. Count of elements : 1200
  148. Stream size : 38.0 KiB (0%)
  149. Language : German
  150. Default : No
  151. Forced : No
  152.  
  153. Text #6
  154. ID : 9
  155. Format : UTF-8
  156. Codec ID : S_TEXT/UTF8
  157. Codec ID/Info : UTF-8 Plain Text
  158. Duration : 1 h 35 min
  159. Bit rate : 50 b/s
  160. Count of elements : 1329
  161. Stream size : 35.7 KiB (0%)
  162. Language : French
  163. Default : No
  164. Forced : No
  165.  
  166. Text #7
  167. ID : 10
  168. Format : UTF-8
  169. Codec ID : S_TEXT/UTF8
  170. Codec ID/Info : UTF-8 Plain Text
  171. Duration : 1 h 35 min
  172. Bit rate : 49 b/s
  173. Count of elements : 1285
  174. Stream size : 35.1 KiB (0%)
  175. Title : European
  176. Language : Spanish
  177. Default : No
  178. Forced : No
  179.  
  180. Text #8
  181. ID : 11
  182. Format : UTF-8
  183. Codec ID : S_TEXT/UTF8
  184. Codec ID/Info : UTF-8 Plain Text
  185. Duration : 1 h 35 min
  186. Bit rate : 52 b/s
  187. Count of elements : 1315
  188. Stream size : 36.8 KiB (0%)
  189. Language : Portuguese
  190. Default : No
  191. Forced : No
  192.  
  193. Text #9
  194. ID : 12
  195. Format : UTF-8
  196. Codec ID : S_TEXT/UTF8
  197. Codec ID/Info : UTF-8 Plain Text
  198. Duration : 1 h 36 min
  199. Bit rate : 51 b/s
  200. Count of elements : 1320
  201. Stream size : 36.4 KiB (0%)
  202. Language : Italian
  203. Default : No
  204. Forced : No
RAW Paste Data