SHARE
TWEET

Untitled

a guest Aug 13th, 2017 48 Never
Not a member of Pastebin yet? Sign Up, it unlocks many cool features!
  1. General
  2. Complete name                    : Disney Channel Original Movies\Zenon.The.Zequel.2001.PDTV.XviD-SLiME.avi
  3. Format                           : AVI
  4. Format/Info                      : Audio Video Interleave
  5. File size                        : 700 MiB
  6. Duration                         : 1h 28mn
  7. Overall bit rate                 : 1 103 Kbps
  8. Writing application              : VirtualDubMod 1.5.10.2 (build 2540/release)
  9. Writing library                  : VirtualDubMod build 2540/release
  10.  
  11. Video
  12. ID                               : 0
  13. Format                           : MPEG-4 Visual
  14. Format profile                   : Advanced Simple@L5
  15. Format settings, BVOP            : Yes
  16. Format settings, QPel            : No
  17. Format settings, GMC             : No warppoints
  18. Format settings, Matrix          : Default (H.263)
  19. Muxing mode                      : Packed bitstream
  20. Codec ID                         : XVID
  21. Codec ID/Hint                    : XviD
  22. Duration                         : 1h 28mn
  23. Bit rate                         : 970 Kbps
  24. Width                            : 512 pixels
  25. Height                           : 384 pixels
  26. Display aspect ratio             : 4:3
  27. Frame rate                       : 23.976 fps
  28. Color space                      : YUV
  29. Chroma subsampling               : 4:2:0
  30. Bit depth                        : 8 bits
  31. Scan type                        : Progressive
  32. Compression mode                 : Lossy
  33. Bits/(Pixel*Frame)               : 0.206
  34. Stream size                      : 616 MiB (88%)
  35. Writing library                  : XviD 1.2.1 (UTC 2008-12-04)
  36.  
  37. Audio
  38. ID                               : 1
  39. Format                           : MPEG Audio
  40. Format version                   : Version 1
  41. Format profile                   : Layer 3
  42. Mode                             : Joint stereo
  43. Mode extension                   : MS Stereo
  44. Codec ID                         : 55
  45. Codec ID/Hint                    : MP3
  46. Duration                         : 1h 28mn
  47. Bit rate mode                    : Variable
  48. Bit rate                         : 120 Kbps
  49. Nominal bit rate                 : 128 Kbps
  50. Channel(s)                       : 2 channels
  51. Sampling rate                    : 48.0 KHz
  52. Compression mode                 : Lossy
  53. Stream size                      : 76.2 MiB (11%)
  54. Alignment                        : Aligned on interleaves
  55. Interleave, duration             : 24 ms (0.58 video frame)
  56. Interleave, preload duration     : 536 ms
  57. Writing library                  : LAME3.97b
  58. Encoding settings                : -m j -V 4 -q 3 -lowpass 17 --abr 128
RAW Paste Data
Top