HYBRID_BEING

[GJM] Planetarian ~Chiisana Hoshi no Yume~ - 01 [C94C94C9].mkv

Jul 14th, 2016
85
Never
Not a member of Pastebin yet? Sign Up, it unlocks many cool features!
  1. General
  2. Unique ID : 202342493783002354209121061867891082309 (0x9839BF2CF72314D7B884AFA83B624445)
  3. Complete name : [GJM] Planetarian ~Chiisana Hoshi no Yume~ - 01 [C94C94C9].mkv
  4. Format : Matroska
  5. Format version : Version 4 / Version 2
  6. File size : 275 MiB
  7. Duration : 18mn 5s
  8. Overall bit rate : 2 130 Kbps
  9. Encoded date : UTC 2016-07-10 15:23:43
  10. Writing application : mkvmerge v9.2.0 ('Photograph') 32bit
  11. Writing library : libebml v1.3.3 + libmatroska v1.4.4
  12. Attachments : Humana_Sans_Md_ITC_TT_Medium.ttf / INKABOD.TTF / Knights Quest.ttf / KOZGOPRO-MEDIUM-ENG.ttf / KozGoProStrp-Heavy.ttf / KozMinProStrippedV3-Heavy.otf / KOZUKAGOTHICPROL-EN.TTF / KozukaMinchoProStrp-H.otf / KozukaMinchoProStrp-M.otf / Leafs.ttf / MyriadPro-Semibold.otf / segoeprb.ttf / Surface_Medium.otf / badankadonk.ttf / Doctor Soos Bold 2.0.ttf / GandhiSans-Bold.otf / GandhiSans-BoldItalic.otf
  13.  
  14. Video
  15. ID : 1
  16. Format : AVC
  17. Format/Info : Advanced Video Codec
  18. Format profile : High 4:4:4 Predictive@L5
  19. Format settings, CABAC : Yes
  20. Format settings, ReFrames : 16 frames
  21. Codec ID : V_MPEG4/ISO/AVC
  22. Duration : 18mn 5s
  23. Bit rate : 1 919 Kbps
  24. Width : 1 280 pixels
  25. Height : 720 pixels
  26. Display aspect ratio : 16:9
  27. Frame rate mode : Constant
  28. Frame rate : 23.976 (24000/1001) fps
  29. Color space : YUV
  30. Chroma subsampling : 4:4:4
  31. Bit depth : 10 bits
  32. Scan type : Progressive
  33. Bits/(Pixel*Frame) : 0.087
  34. Stream size : 248 MiB (90%)
  35. Writing library : x264 core 142 r2431kMod ac76440
  36. Encoding settings : cabac=1 / ref=16 / deblock=1:-1:-2 / analyse=0x3:0x133 / me=umh / subme=10 / psy=1 / fade_compensate=0.45 / psy_rd=0.57:0.04 / mixed_ref=1 / me_range=24 / chroma_me=1 / trellis=2 / 8x8dct=1 / cqm=0 / deadzone=21,11 / fast_pskip=0 / chroma_qp_offset=-1 / threads=9 / lookahead_threads=2 / sliced_threads=0 / nr=0 / decimate=0 / interlaced=0 / bluray_compat=0 / constrained_intra=0 / fgo=0 / bframes=16 / b_pyramid=2 / b_adapt=2 / b_bias=0 / direct=3 / weightb=1 / open_gop=0 / weightp=2 / keyint=250 / keyint_min=24 / scenecut=40 / intra_refresh=0 / rc_lookahead=80 / rc=crf / mbtree=1 / crf=17.5000 / qcomp=0.74 / qpmin=0 / qpmax=48 / qpstep=4 / ip_ratio=1.40 / aq=3:0.86
  37. Language : Japanese
  38. Default : Yes
  39. Forced : No
  40. Color range : Limited
  41. Matrix coefficients : BT.709
  42.  
  43. Audio
  44. ID : 2
  45. Format : AAC
  46. Format/Info : Advanced Audio Codec
  47. Format profile : LC
  48. Codec ID : A_AAC
  49. Duration : 18mn 5s
  50. Bit rate : 192 Kbps
  51. Channel(s) : 2 channels
  52. Channel positions : Front: L R
  53. Sampling rate : 48.0 KHz
  54. Frame rate : 46.875 fps (1024 spf)
  55. Compression mode : Lossy
  56. Stream size : 24.5 MiB (9%)
  57. Language : Japanese
  58. Default : Yes
  59. Forced : No
  60.  
  61. Text
  62. ID : 3
  63. Format : ASS
  64. Codec ID : S_TEXT/ASS
  65. Codec ID/Info : Advanced Sub Station Alpha
  66. Duration : 18mn 4s
  67. Bit rate : 2 758 bps
  68. Count of elements : 2331
  69. Compression mode : Lossless
  70. Stream size : 365 KiB (0%)
  71. Title : No Honorifics
  72. Language : English
  73. Default : Yes
  74. Forced : No
  75.  
  76. Menu
  77. 00:00:00.000 : :Intro
  78. 00:01:34.219 : :Main Episode
  79. 00:16:00.168 : :ED
RAW Paste Data