Advertisement
Guest User

Untitled

a guest
Sep 11th, 2018
17
0
Never
Not a member of Pastebin yet? Sign Up, it unlocks many cool features!
text 5.36 KB | None | 0 0
  1. General
  2. Unique ID : 70539182367449516951330553429395623047 (0x35115A3418509ECD7B65E9DEC265CC87)
  3. Complete name : \\192.168.1.112\Films\Anime\À trier\Kobayashi-san Chi no Maid Dragon\Kobayashi-san Chi no Maid Dragon - 00x01 [1080p] [10 Bit] [x264].mkv
  4. Format : Matroska
  5. Format version : Version 4 / Version 2
  6. File size : 11.5 MiB
  7. Duration : 2 min 27 s
  8. Overall bit rate : 656 kb/s
  9. Movie name : (Hi10) Kobayashi-san Chi no OO Dragon - 01 (BD 1080p)
  10. Encoded date : UTC 2017-12-25 18:47:03
  11. Writing application : mkvmerge v14.0.0 ('Flow') 64bit
  12. Writing library : libebml v1.3.4 + libmatroska v1.4.5
  13. Attachments : AltonaBold.otf / RH-Sans.ttf
  14.  
  15. Video
  16. ID : 1
  17. Format : AVC
  18. Format/Info : Advanced Video Codec
  19. Format profile : High 10@L5.1
  20. Format settings : CABAC / 12 Ref Frames
  21. Format settings, CABAC : Yes
  22. Format settings, RefFrames : 12 frames
  23. Codec ID : V_MPEG4/ISO/AVC
  24. Duration : 2 min 27 s
  25. Bit rate : 461 kb/s
  26. Width : 1 920 pixels
  27. Height : 1 080 pixels
  28. Display aspect ratio : 16:9
  29. Frame rate mode : Constant
  30. Frame rate : 23.976 (24000/1001) FPS
  31. Color space : YUV
  32. Chroma subsampling : 4:2:0
  33. Bit depth : 10 bits
  34. Scan type : Progressive
  35. Bits/(Pixel*Frame) : 0.009
  36. Stream size : 8.08 MiB (70%)
  37. Writing library : x264 core 152 r2851kMod ba24899
  38. Encoding settings : cabac=1 / ref=12 / deblock=1:1:1 / analyse=0x3:0x133 / me=umh / subme=10 / psy=1 / fade_compensate=0.00 / psy_rd=0.40:0.00 / mixed_ref=1 / me_range=24 / chroma_me=1 / trellis=2 / 8x8dct=1 / cqm=0 / deadzone=21,11 / fast_pskip=1 / chroma_qp_offset=-2 / threads=6 / lookahead_threads=1 / sliced_threads=0 / nr=0 / decimate=1 / interlaced=0 / bluray_compat=0 / constrained_intra=0 / bframes=10 / b_pyramid=2 / b_adapt=2 / b_bias=0 / direct=3 / weightb=1 / open_gop=0 / weightp=2 / keyint=250 / keyint_min=8 / scenecut=45 / intra_refresh=0 / rc_lookahead=45 / rc=crf / mbtree=1 / crf=22.0000 / qcomp=0.60 / qpmin=0 / qpmax=81 / qpstep=4 / ip_ratio=1.40 / aq=3:0.70
  39. Language : English
  40. Default : Yes
  41. Forced : No
  42.  
  43. Audio
  44. ID : 2
  45. Format : Opus
  46. Codec ID : A_OPUS
  47. Duration : 2 min 27 s
  48. Bit rate : 182 kb/s
  49. Channel(s) : 2 channels
  50. Channel positions : Front: L R
  51. Sampling rate : 48.0 kHz
  52. Frame rate : 50.002 FPS (960 SPF)
  53. Compression mode : Lossy
  54. Stream size : 3.19 MiB (28%)
  55. Title : 2.0 FLAC
  56. Language : Japanese
  57. Default : Yes
  58. Forced : No
  59.  
  60. Text
  61. ID : 3
  62. Format : ASS
  63. Codec ID : S_TEXT/ASS
  64. Codec ID/Info : Advanced Sub Station Alpha
  65. Duration : 2 min 0 s
  66. Bit rate : 222 b/s
  67. Count of elements : 70
  68. Compression mode : Lossless
  69. Stream size : 3.28 KiB (0%)
  70. Title : RH
  71. Language : English
  72. Default : Yes
  73. Forced : No
  74.  
  75. Menu
  76. 00:00:00.000 : en:Miss Kobayashi's Dragon Something
  77. 00:00:06.006 : en:Miss Kobayashi's OO Dragon
  78. 00:00:32.366 : en:Miss Kobayashi's Dragon Band
  79. 00:01:00.185 : en:Miss Kobayashi's Dragon Mermaid
  80. 00:01:19.788 : en:Miss Kobayashi's Dragon Indian
  81. 00:01:28.297 : en:Miss Kobayashi's Dragon Iceland
  82. 00:01:33.927 : en:Miss Kobayashi's Dragon New Zealand
  83. 00:01:39.808 : en:Miss Kobayashi's Dragon Avocado
  84. 00:01:46.315 : en:Miss Kobayashi's Dragon Do-Re-Mi-Fa-So-Ra-Ti-Do
  85. 00:01:52.821 : en:Miss Kobayashi's Dragon Nude
  86. 00:02:04.875 : en:To Be Continued
  87. 00:02:07.127 : en:Credits
Advertisement
Add Comment
Please, Sign In to add comment
Advertisement