Advertisement
DAKUBABU

Untitled

Dec 11th, 2021
40
Never
Not a member of Pastebin yet? Sign Up, it unlocks many cool features!
  1. General
  2. Unique ID : 20673230770911217490930559832835738535 (0xF8D84F8A2F471015E4F7FA63073CBA7)
  3. Complete name : F:\IF\MoviezAddiction.Cc - If Beale Street Could Talk (2018) 720p BluRay x264 HE-AAC ESub Dual Audio [Hindi + English] 965MB.mkv
  4. Format : Matroska
  5. Format version : Version 4
  6. File size : 964 MiB
  7. Duration : 1 h 59 min
  8. Overall bit rate : 1 132 kb/s
  9. Movie name : MoviezAddiction.Cc | If Beale Street Could Talk (2018) 720p BluRay x264 HE-AAC ESub Dual Audio [Hindi + English] 965MB
  10. Encoded date : UTC 2021-12-11 17:59:11
  11. Writing application : mkvmerge v47.0.0 ('Black Flag') 64-bit
  12. Writing library : libebml v1.3.10 + libmatroska v1.5.2
  13.  
  14. Video
  15. ID : 2
  16. Format : AVC
  17. Format/Info : Advanced Video Codec
  18. Format profile : High@L4
  19. Format settings : CABAC / 8 Ref Frames
  20. Format settings, CABAC : Yes
  21. Format settings, Reference frames : 8 frames
  22. Codec ID : V_MPEG4/ISO/AVC
  23. Duration : 1 h 59 min
  24. Bit rate : 855 kb/s
  25. Width : 1 280 pixels
  26. Height : 640 pixels
  27. Display aspect ratio : 2.000
  28. Frame rate mode : Constant
  29. Frame rate : 23.976 (24000/1001) FPS
  30. Color space : YUV
  31. Chroma subsampling : 4:2:0
  32. Bit depth : 8 bits
  33. Scan type : Progressive
  34. Bits/(Pixel*Frame) : 0.044
  35. Stream size : 728 MiB (76%)
  36. Title : MoviezAddiction.Cc
  37. Writing library : x264 core 155 r2901 7d0ff22
  38. Encoding settings : cabac=1 / ref=8 / deblock=1:-2:-2 / analyse=0x3:0x133 / me=umh / subme=10 / psy=1 / psy_rd=1.00:0.15 / mixed_ref=1 / me_range=32 / chroma_me=1 / trellis=2 / 8x8dct=1 / cqm=0 / deadzone=21,11 / fast_pskip=1 / chroma_qp_offset=-3 / threads=20 / lookahead_threads=1 / sliced_threads=0 / nr=0 / decimate=1 / interlaced=0 / bluray_compat=0 / constrained_intra=0 / bframes=3 / b_pyramid=2 / b_adapt=2 / b_bias=0 / direct=3 / weightb=1 / open_gop=0 / weightp=2 / keyint=250 / keyint_min=23 / scenecut=40 / intra_refresh=0 / rc_lookahead=60 / rc=2pass / mbtree=1 / bitrate=855 / ratetol=1.0 / qcomp=0.60 / qpmin=0 / qpmax=69 / qpstep=4 / cplxblur=20.0 / qblur=0.5 / vbv_maxrate=15500 / vbv_bufsize=16000 / nal_hrd=none / filler=0 / ip_ratio=1.40 / aq=3:0.80
  39. Language : English
  40. Default : Yes
  41. Forced : Yes
  42.  
  43. Audio #1
  44. ID : 1
  45. Format : AAC LC SBR
  46. Format/Info : Advanced Audio Codec Low Complexity with Spectral Band Replication
  47. Commercial name : HE-AAC
  48. Format settings : Explicit
  49. Codec ID : A_AAC-2
  50. Duration : 1 h 59 min
  51. Bit rate : 192 kb/s
  52. Channel(s) : 6 channels
  53. Channel layout : C L R Ls Rs LFE
  54. Sampling rate : 48.0 kHz
  55. Frame rate : 23.438 FPS (2048 SPF)
  56. Compression mode : Lossy
  57. Delay relative to video : 15 ms
  58. Stream size : 164 MiB (17%)
  59. Title : MoviezAddiction.Cc
  60. Language : Hindi
  61. Default : Yes
  62. Forced : Yes
  63.  
  64. Audio #2
  65. ID : 3
  66. Format : AAC LC
  67. Format/Info : Advanced Audio Codec Low Complexity
  68. Codec ID : A_AAC-2
  69. Duration : 1 h 59 min
  70. Bit rate : 82.6 kb/s
  71. Channel(s) : 2 channels
  72. Channel layout : L R
  73. Sampling rate : 48.0 kHz
  74. Frame rate : 46.875 FPS (1024 SPF)
  75. Compression mode : Lossy
  76. Stream size : 70.3 MiB (7%)
  77. Title : MoviezAddiction.Cc
  78. Language : English
  79. Default : No
  80. Forced : Yes
  81.  
  82. Text
  83. ID : 4
  84. Format : UTF-8
  85. Codec ID : S_TEXT/UTF8
  86. Codec ID/Info : UTF-8 Plain Text
  87. Duration : 1 h 58 min
  88. Bit rate : 56 b/s
  89. Count of elements : 1611
  90. Stream size : 48.7 KiB (0%)
  91. Title : MoviezAddiction.Cc
  92. Language : English
  93. Default : Yes
  94. Forced : Yes
  95.  
  96.  
Advertisement
RAW Paste Data Copied
Advertisement