SHARE
TWEET

Sully (1080p)

RobbieL811 Dec 7th, 2016 107 Never
Not a member of Pastebin yet? Sign Up, it unlocks many cool features!
  1. General
  2. Unique ID                                : 186345934423764658913285930550035740746 (0x8C30EBE83877FA0BA194D22F8833F84A)
  3. Complete name                            : D:\Encodes\Sully.2016.1080p.BluRay.DD.x264-HDMaNiAcS\Sully.2016.1080p.BluRay.DD.x264-HDMaNiAcS.mkv
  4. Format                                   : Matroska
  5. Format version                           : Version 4 / Version 2
  6. File size                                : 10.6 GiB
  7. Duration                                 : 1 h 35 min
  8. Overall bit rate                         : 15.8 Mb/s
  9. Movie name                               : Sully.2016.1080p.BluRay.DD.x264-HDMaNiAcS
  10. Encoded date                             : UTC 2016-12-07 23:11:16
  11. Writing application                      : mkvmerge v9.6.0 ('Slave To Your Mind') 64bit
  12. Writing library                          : libebml v1.3.4 + libmatroska v1.4.5
  13.  
  14. Video
  15. ID                                       : 1
  16. Format                                   : AVC
  17. Format/Info                              : Advanced Video Codec
  18. Format profile                           : High@L4.1
  19. Format settings, CABAC                   : Yes
  20. Format settings, ReFrames                : 5 frames
  21. Codec ID                                 : V_MPEG4/ISO/AVC
  22. Duration                                 : 1 h 35 min
  23. Bit rate                                 : 15.2 Mb/s
  24. Width                                    : 1 920 pixels
  25. Height                                   : 804 pixels
  26. Display aspect ratio                     : 2.40:1
  27. Frame rate mode                          : Constant
  28. Frame rate                               : 23.976 (24000/1001) FPS
  29. Color space                              : YUV
  30. Chroma subsampling                       : 4:2:0
  31. Bit depth                                : 8 bits
  32. Scan type                                : Progressive
  33. Bits/(Pixel*Frame)                       : 0.410
  34. Stream size                              : 10.1 GiB (96%)
  35. Writing library                          : x264 core 146 r2538 121396c
  36. Encoding settings                        : cabac=1 / ref=5 / deblock=1:-3:-3 / analyse=0x3:0x133 / me=tesa / subme=11 / psy=1 / psy_rd=1.00:0.00 / mixed_ref=1 / me_range=32 / chroma_me=1 / trellis=2 / 8x8dct=1 / cqm=0 / deadzone=21,11 / fast_pskip=0 / chroma_qp_offset=-2 / threads=60 / lookahead_threads=6 / sliced_threads=0 / nr=0 / decimate=0 / interlaced=0 / bluray_compat=0 / constrained_intra=0 / bframes=10 / b_pyramid=2 / b_adapt=2 / b_bias=0 / direct=3 / weightb=1 / open_gop=0 / weightp=2 / keyint=240 / keyint_min=23 / scenecut=40 / intra_refresh=0 / rc_lookahead=150 / rc=crf / mbtree=0 / crf=14.1 / qcomp=0.60 / qpmin=0 / qpmax=69 / qpstep=4 / vbv_maxrate=62500 / vbv_bufsize=78125 / crf_max=0.0 / nal_hrd=none / filler=0 / ip_ratio=1.40 / pb_ratio=1.30 / aq=1:0.80 / zones=127220,127588,b=0.2/130590,131796,b=0.2/132729,137877,b=0.2
  37. Default                                  : Yes
  38. Forced                                   : No
  39. Color range                              : Limited
  40. Matrix coefficients                      : BT.709
  41.  
  42. Audio
  43. ID                                       : 2
  44. Format                                   : AC-3
  45. Format/Info                              : Audio Coding 3
  46. Mode extension                           : CM (complete main)
  47. Format settings, Endianness              : Big
  48. Codec ID                                 : A_AC3
  49. Duration                                 : 1 h 35 min
  50. Bit rate mode                            : Constant
  51. Bit rate                                 : 640 kb/s
  52. Channel(s)                               : 6 channels
  53. Channel positions                        : Front: L C R, Side: L R, LFE
  54. Sampling rate                            : 48.0 kHz
  55. Frame rate                               : 31.250 FPS (1536 spf)
  56. Compression mode                         : Lossy
  57. Stream size                              : 439 MiB (4%)
  58. Title                                    : DD 5.1
  59. Language                                 : English
  60. Default                                  : Yes
  61. Forced                                   : No
  62.  
  63. Text #1
  64. ID                                       : 3
  65. Format                                   : UTF-8
  66. Codec ID                                 : S_TEXT/UTF8
  67. Codec ID/Info                            : UTF-8 Plain Text
  68. Duration                                 : 1 h 35 min
  69. Bit rate                                 : 68 b/s
  70. Count of elements                        : 1524
  71. Stream size                              : 48.2 KiB (0%)
  72. Title                                    : English
  73. Language                                 : English
  74. Default                                  : Yes
  75. Forced                                   : No
  76.  
  77. Text #2
  78. ID                                       : 4
  79. Format                                   : UTF-8
  80. Codec ID                                 : S_TEXT/UTF8
  81. Codec ID/Info                            : UTF-8 Plain Text
  82. Duration                                 : 1 h 35 min
  83. Bit rate                                 : 76 b/s
  84. Count of elements                        : 1629
  85. Stream size                              : 53.3 KiB (0%)
  86. Title                                    : English-SDH
  87. Language                                 : English
  88. Default                                  : No
  89. Forced                                   : No
  90.  
  91. Text #3
  92. ID                                       : 5
  93. Format                                   : UTF-8
  94. Codec ID                                 : S_TEXT/UTF8
  95. Codec ID/Info                            : UTF-8 Plain Text
  96. Duration                                 : 1 h 31 min
  97. Bit rate                                 : 63 b/s
  98. Count of elements                        : 1472
  99. Stream size                              : 42.9 KiB (0%)
  100. Title                                    : Chinese
  101. Language                                 : Chinese
  102. Default                                  : No
  103. Forced                                   : No
  104.  
  105. Text #4
  106. ID                                       : 6
  107. Format                                   : UTF-8
  108. Codec ID                                 : S_TEXT/UTF8
  109. Codec ID/Info                            : UTF-8 Plain Text
  110. Duration                                 : 1 h 30 min
  111. Bit rate                                 : 69 b/s
  112. Count of elements                        : 1299
  113. Stream size                              : 46.4 KiB (0%)
  114. Title                                    : Dutch
  115. Language                                 : Dutch
  116. Default                                  : No
  117. Forced                                   : No
  118.  
  119. Text #5
  120. ID                                       : 7
  121. Format                                   : UTF-8
  122. Codec ID                                 : S_TEXT/UTF8
  123. Codec ID/Info                            : UTF-8 Plain Text
  124. Duration                                 : 1 h 31 min
  125. Bit rate                                 : 60 b/s
  126. Count of elements                        : 1355
  127. Stream size                              : 41.0 KiB (0%)
  128. Title                                    : French
  129. Language                                 : French
  130. Default                                  : No
  131. Forced                                   : No
  132.  
  133. Text #6
  134. ID                                       : 8
  135. Format                                   : UTF-8
  136. Codec ID                                 : S_TEXT/UTF8
  137. Codec ID/Info                            : UTF-8 Plain Text
  138. Duration                                 : 1 h 28 min
  139. Bit rate                                 : 95 b/s
  140. Count of elements                        : 972
  141. Stream size                              : 62.0 KiB (0%)
  142. Title                                    : Greek
  143. Language                                 : Greek
  144. Default                                  : No
  145. Forced                                   : No
  146.  
  147. Text #7
  148. ID                                       : 9
  149. Format                                   : UTF-8
  150. Codec ID                                 : S_TEXT/UTF8
  151. Codec ID/Info                            : UTF-8 Plain Text
  152. Duration                                 : 1 h 35 min
  153. Bit rate                                 : 68 b/s
  154. Count of elements                        : 1520
  155. Stream size                              : 47.8 KiB (0%)
  156. Title                                    : Portuguese
  157. Language                                 : Portuguese
  158. Default                                  : No
  159. Forced                                   : No
  160.  
  161. Text #8
  162. ID                                       : 10
  163. Format                                   : UTF-8
  164. Codec ID                                 : S_TEXT/UTF8
  165. Codec ID/Info                            : UTF-8 Plain Text
  166. Duration                                 : 1 h 28 min
  167. Bit rate                                 : 65 b/s
  168. Count of elements                        : 1087
  169. Stream size                              : 42.4 KiB (0%)
  170. Title                                    : Romanian
  171. Language                                 : Romanian
  172. Default                                  : No
  173. Forced                                   : No
  174.  
  175. Text #9
  176. ID                                       : 11
  177. Format                                   : UTF-8
  178. Codec ID                                 : S_TEXT/UTF8
  179. Codec ID/Info                            : UTF-8 Plain Text
  180. Duration                                 : 1 h 32 min
  181. Bit rate                                 : 79 b/s
  182. Count of elements                        : 1511
  183. Stream size                              : 53.8 KiB (0%)
  184. Title                                    : Spanish
  185. Language                                 : Spanish
  186. Default                                  : No
  187. Forced                                   : No
  188.  
  189. Text #10
  190. ID                                       : 12
  191. Format                                   : UTF-8
  192. Codec ID                                 : S_TEXT/UTF8
  193. Codec ID/Info                            : UTF-8 Plain Text
  194. Duration                                 : 1 h 28 min
  195. Bit rate                                 : 89 b/s
  196. Count of elements                        : 1503
  197. Stream size                              : 58.1 KiB (0%)
  198. Title                                    : Vietnamese
  199. Language                                 : Vietnamese
  200. Default                                  : No
  201. Forced                                   : No
  202.  
  203. Menu
  204. 00:00:00.000                             : en:Chapter 1
  205. 00:11:12.505                             : en:Chapter 2
  206. 00:18:06.168                             : en:Chapter 3
  207. 00:29:57.921                             : en:Chapter 4
  208. 00:38:55.416                             : en:Chapter 5
  209. 00:49:20.749                             : en:Chapter 6
  210. 01:00:50.856                             : en:Chapter 7
  211. 01:08:16.384                             : en:Chapter 8
  212. 01:18:09.810                             : en:Chapter 9
  213. 01:26:59.798                             : en:Chapter 10
RAW Paste Data
Top