SHARE
TWEET

Untitled

mft39anton Jun 4th, 2019 70 Never
Not a member of Pastebin yet? Sign Up, it unlocks many cool features!
  1. General
  2. Unique ID                                : 208917858613993203946056064101567071389 (0x9D2C1DB10255BA509974D04A7BF6849D)
  3. Complete name                            : F:\TL\Moscow.Noir.S01.MULTi.1080p.HDTV.x264-HYBRiS\Moscow.Noir.S01E01.MULTi.1080p.HDTV.x264-HYBRiS\Sample\moscow.noir.s01e01.multi.1080p.hdtv.x264-hybris-sample.mkv
  4. Format                                   : Matroska
  5. Format version                           : Version 4
  6. File size                                : 48.6 MiB
  7. Duration                                 : 1 min 5 s
  8. Overall bit rate                         : 6 261 kb/s
  9. Encoded date                             : UTC 2019-05-12 13:14:51
  10. Writing application                      : mkvmerge v33.1.0 ('Primrose') 32-bit
  11. Writing library                          : libebml v1.3.7 + libmatroska v1.5.0
  12.  
  13. Video
  14. ID                                       : 1
  15. Format                                   : AVC
  16. Format/Info                              : Advanced Video Codec
  17. Format profile                           : High@L4.1
  18. Format settings                          : CABAC / 4 Ref Frames
  19. Format settings, CABAC                   : Yes
  20. Format settings, Reference frames        : 4 frames
  21. Codec ID                                 : V_MPEG4/ISO/AVC
  22. Duration                                 : 1 min 5 s
  23. Bit rate                                 : 6 066 kb/s
  24. Width                                    : 1 920 pixels
  25. Height                                   : 960 pixels
  26. Display aspect ratio                     : 2.000
  27. Frame rate mode                          : Constant
  28. Frame rate                               : 25.000 FPS
  29. Color space                              : YUV
  30. Chroma subsampling                       : 4:2:0
  31. Bit depth                                : 8 bits
  32. Scan type                                : Progressive
  33. Bits/(Pixel*Frame)                       : 0.132
  34. Stream size                              : 47.1 MiB (97%)
  35. Title                                    : Moscou Noir S01E01
  36. Language                                 : French
  37. Default                                  : Yes
  38. Forced                                   : No
  39. Color range                              : Limited
  40. Matrix coefficients                      : BT.709
  41.  
  42. Audio #1
  43. ID                                       : 2
  44. Format                                   : E-AC-3
  45. Format/Info                              : Enhanced AC-3
  46. Commercial name                          : Dolby Digital Plus
  47. Codec ID                                 : A_EAC3
  48. Duration                                 : 1 min 5 s
  49. Bit rate mode                            : Constant
  50. Bit rate                                 : 96.0 kb/s
  51. Channel(s)                               : 2 channels
  52. Channel layout                           : L R
  53. Sampling rate                            : 48.0 kHz
  54. Frame rate                               : 31.250 FPS (1536 SPF)
  55. Compression mode                         : Lossy
  56. Delay relative to video                  : 8 ms
  57. Stream size                              : 764 KiB (2%)
  58. Title                                    : Français E-AC3 2.0
  59. Language                                 : French
  60. Service kind                             : Complete Main
  61. Default                                  : Yes
  62. Forced                                   : No
  63.  
  64. Audio #2
  65. ID                                       : 3
  66. Format                                   : E-AC-3
  67. Format/Info                              : Enhanced AC-3
  68. Commercial name                          : Dolby Digital Plus
  69. Codec ID                                 : A_EAC3
  70. Duration                                 : 1 min 5 s
  71. Bit rate mode                            : Constant
  72. Bit rate                                 : 96.0 kb/s
  73. Channel(s)                               : 2 channels
  74. Channel layout                           : L R
  75. Sampling rate                            : 48.0 kHz
  76. Frame rate                               : 31.250 FPS (1536 SPF)
  77. Compression mode                         : Lossy
  78. Delay relative to video                  : 8 ms
  79. Stream size                              : 764 KiB (2%)
  80. Title                                    : Anglais E-AC3 2.0
  81. Language                                 : English
  82. Service kind                             : Complete Main
  83. Default                                  : No
  84. Forced                                   : No
  85.  
  86. Text
  87. ID                                       : 4
  88. Format                                   : UTF-8
  89. Codec ID                                 : S_TEXT/UTF8
  90. Codec ID/Info                            : UTF-8 Plain Text
  91. Duration                                 : 1 min 2 s
  92. Bit rate                                 : 67 b/s
  93. Count of elements                        : 18
  94. Stream size                              : 529 Bytes (0%)
  95. Title                                    : Français
  96. Language                                 : French
  97. Default                                  : No
  98. Forced                                   : No
RAW Paste Data
We use cookies for various purposes including analytics. By continuing to use Pastebin, you agree to our use of cookies as described in the Cookies Policy. OK, I Understand
Not a member of Pastebin yet?
Sign Up, it unlocks many cool features!
 
Top