Secasa

Untitled

May 24th, 2015
31
Never
Not a member of Pastebin yet? Sign Up, it unlocks many cool features!
  1. Format : Matroska
  2. Format version : Version 4 / Version 2
  3. File size : 7.22 GiB
  4. Duration : 1h 55mn
  5. Overall bit rate : 8 984 Kbps
  6. Encoded date : UTC 2015-05-18 20:32:55
  7. Writing application : mkvmerge v7.9.0 ('Birds') 64bit
  8. Writing library : Lavf55.12.0
  9. _STATISTICS_WRITING_APP : mkvmerge v7.9.0 ('Birds') 64bit
  10. _STATISTICS_WRITING_DATE_UT : 2015-05-18 20:32:55
  11. _STATISTICS_TAGS : BPS DURATION NUMBER_OF_FRAMES NUMBER_OF_BYTES
  12. DURATION : 01:54:17.100000000
  13. NUMBER_OF_FRAMES : 1918
  14. NUMBER_OF_BYTES : 6598194
  15.  
  16. Video
  17. ID : 1
  18. Format : AVC
  19. Format/Info : Advanced Video Codec
  20. Format profile : High@L4.0
  21. Format settings, CABAC : Yes
  22. Format settings, ReFrames : 4 frames
  23. Codec ID : V_MPEG4/ISO/AVC
  24. Duration : 1h 55mn
  25. Bit rate : 6 529 Kbps
  26. Width : 1 920 pixels
  27. Height : 816 pixels
  28. Display aspect ratio : 2.35:1
  29. Frame rate mode : Constant
  30. Frame rate : 23.976 fps
  31. Color space : YUV
  32. Chroma subsampling : 4:2:0
  33. Bit depth : 8 bits
  34. Scan type : Progressive
  35. Bits/(Pixel*Frame) : 0.174
  36. Stream size : 5.25 GiB (73%)
  37. Writing library : x264 core 142 r2479 dd79a61
  38. Encoding settings : cabac=1 / ref=3 / deblock=1:0:0 / analyse=0x3:0x113 / me=hex / subme=7 / psy=1 / psy_rd=1.00:0.00 / mixed_ref=1 / me_range=16 / chroma_me=1 / trellis=1 / 8x8dct=1 / cqm=0 / deadzone=21,11 / fast_pskip=1 / chroma_qp_offset=-2 / threads=12 / lookahead_threads=2 / sliced_threads=0 / nr=0 / decimate=1 / interlaced=0 / bluray_compat=0 / constrained_intra=0 / bframes=3 / b_pyramid=2 / b_adapt=1 / b_bias=0 / direct=1 / weightb=1 / open_gop=0 / weightp=2 / keyint=240 / keyint_min=24 / scenecut=40 / intra_refresh=0 / rc_lookahead=40 / rc=crf / mbtree=1 / crf=21.0 / qcomp=0.60 / qpmin=0 / qpmax=69 / qpstep=4 / ip_ratio=1.40 / aq=1:1.00
  39. Default : Yes
  40. Forced : No
  41. Color primaries : BT.709
  42. Transfer characteristics : BT.709
  43. Matrix coefficients : BT.709
  44. Color range : Limited
  45. DURATION : 01:55:07.526000000
  46. NUMBER_OF_FRAMES : 165615
  47. NUMBER_OF_BYTES : 5781956319
  48. _STATISTICS_WRITING_APP : mkvmerge v7.9.0 ('Birds') 64bit
  49. _STATISTICS_WRITING_DATE_UT : 2015-05-18 20:32:55
  50. _STATISTICS_TAGS : BPS DURATION NUMBER_OF_FRAMES NUMBER_OF_BYTES
  51.  
  52. Audio #1
  53. ID : 2
  54. Format : DTS
  55. Format/Info : Digital Theater Systems
  56. Mode : 16
  57. Format settings, Endianness : Big
  58. Codec ID : A_DTS
  59. Duration : 1h 55mn
  60. Bit rate mode : Constant
  61. Bit rate : 768 Kbps
  62. Channel(s) : 6 channels
  63. Channel positions : Front: L C R, Side: L R, LFE
  64. Sampling rate : 48.0 KHz
  65. Bit depth : 24 bits
  66. Compression mode : Lossy
  67. Delay relative to video : -83ms
  68. Stream size : 632 MiB (9%)
  69. Title : DTS castellano
  70. Language : Spanish
  71. Default : No
  72. Forced : No
  73.  
  74. Audio #2
  75. ID : 3
  76. Format : DTS
  77. Format/Info : Digital Theater Systems
  78. Mode : 16
  79. Format settings, Endianness : Big
  80. Codec ID : A_DTS
  81. Duration : 1h 55mn
  82. Bit rate mode : Constant
  83. Bit rate : 1 509 Kbps
  84. Channel(s) : 6 channels
  85. Channel positions : Front: L C R, Side: L R, LFE
  86. Sampling rate : 48.0 KHz
  87. Bit depth : 24 bits
  88. Compression mode : Lossy
  89. Delay relative to video : -83ms
  90. Stream size : 1.21 GiB (17%)
  91. Title : DTS core ingles
  92. Language : English
  93. Default : No
  94. Forced : No
  95.  
  96. Text #1
  97. ID : 4
  98. Format : UTF-8
  99. Codec ID : S_TEXT/UTF8
  100. Codec ID/Info : UTF-8 Plain Text
  101. Title : Forzados castellano (srt)
  102. Language : Spanish
  103. Default : Yes
  104. Forced : Yes
  105.  
  106. Text #2
  107. ID : 5
  108. Format : UTF-8
  109. Codec ID : S_TEXT/UTF8
  110. Codec ID/Info : UTF-8 Plain Text
  111. Title : Completos castellano (srt)
  112. Language : Spanish
  113. Default : No
  114. Forced : No
  115.  
  116. Text #3
  117. ID : 6
  118. Format : UTF-8
  119. Codec ID : S_TEXT/UTF8
  120. Codec ID/Info : UTF-8 Plain Text
  121. Title : Completos ingles (srt)
  122. Language : English
  123. Default : No
  124. Forced : No
  125.  
  126. Text #4
  127. ID : 7
  128. Format : PGS
  129. Muxing mode : zlib
  130. Codec ID : S_HDMV/PGS
  131. Codec ID/Info : The same subtitle format used on BDs/HD-DVDs
  132. Title : Forzados castellano (pgs)
  133. Language : Spanish
  134. Default : No
  135. Forced : No
  136.  
  137. Text #5
  138. ID : 8
  139. Format : PGS
  140. Muxing mode : zlib
  141. Codec ID : S_HDMV/PGS
  142. Codec ID/Info : The same subtitle format used on BDs/HD-DVDs
  143. Title : Completos castellano (pgs)
  144. Language : Spanish
  145. Default : No
  146. Forced : No
RAW Paste Data