Advertisement
Guest User

M2_2014_0407_2338_15.mpg

a guest
Apr 7th, 2014
86
Never
Not a member of Pastebin yet? Sign Up, it unlocks many cool features!
text 3.63 KB | None
  1. General
  2. ID : 30 (0x1E)
  3. Complete name : ...\M2_2014_0407_2338_15.mpg
  4. Format : MPEG-TS
  5. File size : 52.6 MiB
  6. Duration : 1mn 1s
  7. Start time : UTC 2014-04-07 21:38:28
  8. End time : UTC 2014-04-07 21:39:19
  9. Overall bit rate : 7 179 Kbps
  10. Network name : DIGI
  11. Original network name : Astra Satellite Network 19,2'E
  12. Country : HUN
  13. Timezone : +02:00:00
  14.  
  15. Video
  16. ID : 100 (0x64)
  17. Menu ID : 12 (0xC)
  18. Format : MPEG Video
  19. Format version : Version 2
  20. Format profile : Main@Main
  21. Format settings, BVOP : Yes
  22. Format settings, Matrix : Custom
  23. Format settings, GOP : M=3, N=12
  24. Codec ID : 2
  25. Duration : 1mn 0s
  26. Bit rate : 6 437 Kbps
  27. Maximum bit rate : 5 500 Kbps
  28. Width : 720 pixels
  29. Height : 576 pixels
  30. Display aspect ratio : 16:9
  31. Active Format Description : Full frame 16:9 image
  32. Frame rate : 25.000 fps
  33. Standard : PAL
  34. Color space : YUV
  35. Chroma subsampling : 4:2:0
  36. Bit depth : 8 bits
  37. Scan type : Interlaced
  38. Scan order : Top Field First
  39. Compression mode : Lossy
  40. Bits/(Pixel*Frame) : 0.621
  41. Stream size : 46.5 MiB (89%)
  42.  
  43. Audio #1
  44. ID : 101 (0x65)
  45. Menu ID : 12 (0xC)
  46. Format : MPEG Audio
  47. Format version : Version 1
  48. Format profile : Layer 2
  49. Codec ID : 3
  50. Duration : 1mn 1s
  51. Bit rate mode : Constant
  52. Bit rate : 192 Kbps
  53. Channel(s) : 2 channels
  54. Sampling rate : 48.0 KHz
  55. Compression mode : Lossy
  56. Delay relative to video : -193ms
  57. Stream size : 1.40 MiB (3%)
  58. Language : Hungarian
  59.  
  60. Audio #2
  61. ID : 103 (0x67)
  62. Menu ID : 12 (0xC)
  63. Format : MPEG Audio
  64. Format version : Version 1
  65. Format profile : Layer 2
  66. Codec ID : 3
  67. Duration : 1mn 1s
  68. Bit rate mode : Constant
  69. Bit rate : 192 Kbps
  70. Channel(s) : 2 channels
  71. Sampling rate : 48.0 KHz
  72. Compression mode : Lossy
  73. Delay relative to video : -193ms
  74. Stream size : 1.40 MiB (3%)
  75. Language : Multiple languages
Advertisement
RAW Paste Data Copied
Advertisement