SHARE
TWEET

Otaku-Subs Mahou Sensou Folge 02 Ger Sub.mp4

a guest Mar 8th, 2014 87 Never
Not a member of Pastebin yet? Sign Up, it unlocks many cool features!
  1. Format                         : MPEG-4
  2. Format profile                 : Base Media
  3. Codec ID                       : isom
  4. File size                      : 337 MiB
  5. Duration                       : 24mn 9s
  6. Overall bit rate               : 1 949 Kbps
  7. Encoded date                   : UTC 2014-02-28 22:22:13
  8. Tagged date                    : UTC 2014-02-28 22:22:13
  9.  
  10. Video
  11. ID                             : 2
  12. Format                         : AVC
  13. Format/Info                    : Advanced Video Codec
  14. Format profile                 : Baseline@L3.1
  15. Format settings, CABAC         : No
  16. Format settings, ReFrames      : 4 frames
  17. Muxing mode                    : Container profile=Baseline@3.0
  18. Codec ID                       : avc1
  19. Codec ID/Info                  : Advanced Video Coding
  20. Duration                       : 24mn 9s
  21. Bit rate                       : 1 815 Kbps
  22. Width                          : 1 280 pixels
  23. Height                         : 720 pixels
  24. Display aspect ratio           : 16:9
  25. Frame rate mode                : Constant
  26. Frame rate                     : 30.000 fps
  27. Standard                       : NTSC
  28. Color space                    : YUV
  29. Chroma subsampling             : 4:2:0
  30. Bit depth                      : 8 bits
  31. Scan type                      : Progressive
  32. Bits/(Pixel*Frame)             : 0.066
  33. Stream size                    : 314 MiB (93%)
  34. Language                       : English
  35. Color primaries                : BT.601 NTSC
  36. Transfer characteristics       : BT.601
  37. Matrix coefficients            : BT.601
  38.  
  39. Audio
  40. ID                             : 1
  41. Format                         : AAC
  42. Format/Info                    : Advanced Audio Codec
  43. Format profile                 : LC
  44. Codec ID                       : 40
  45. Duration                       : 24mn 9s
  46. Bit rate mode                  : Constant
  47. Bit rate                       : 128 Kbps
  48. Channel count                  : 2 channels
  49. Channel positions              : Front: L R
  50. Sampling rate                  : 44.1 KHz
  51. Compression mode               : Lossy
  52. Stream size                    : 22.1 MiB (7%)
  53. Language                       : English
RAW Paste Data
We use cookies for various purposes including analytics. By continuing to use Pastebin, you agree to our use of cookies as described in the Cookies Policy. OK, I Understand
 
Top