SHARE
TWEET

untitled

loverboy94 Dec 17th, 2018 72 Never
Not a member of Pastebin yet? Sign Up, it unlocks many cool features!
  1. *** General
  2. Complete name                             :  The.House.with.a.Clock.in.Its.Walls.2018.1080p.10bit.BluRay.8CH.x265.HEVC-PSA.mkv
  3. Format                                    :  Matroska
  4. Format version                            :  Version 4
  5. File size                                 :  1.58 GiB
  6. Duration                                  :  1 h 45 min
  7. Overall bit rate                          :  2 153 kb/s
  8. Movie name                                :  PSArips.com | The.House.with.a.Clock.in.Its.Walls.2018.1080p.10bit.BluRay.8CH.x265.HEVC-PSA
  9. Encoded date                              :  UTC 2018-12-16 06:05:58
  10. Writing application                       :  mkvmerge v29.0.0 ('Like It Or Not') 64-bit
  11. Writing library                           :  libebml v1.3.6 + libmatroska v1.4.9
  12.  
  13. *** Video
  14. ID                                        :  1
  15. Format                                    :  HEVC
  16. Format/Info                               :  High Efficiency Video Coding
  17. Format profile                            :  Main 10@L4@Main
  18. Codec ID                                  :  V_MPEGH/ISO/HEVC
  19. Duration                                  :  1 h 45 min
  20. Bit rate                                  :  1 865 kb/s
  21. Width                                     :  1 920 pixels
  22. Height                                    :  808 pixels
  23. Display aspect ratio                      :  2.40:1
  24. Frame rate mode                           :  Constant
  25. Frame rate                                :  23.976 (24000/1001) FPS
  26. Color space                               :  YUV
  27. Chroma subsampling                        :  4:2:0
  28. Bit depth                                 :  10 bits
  29. Bits/(Pixel*Frame)                        :  0.050
  30. Stream size                               :  1.37 GiB (87%)
  31. Default                                   :  Yes
  32. Forced                                    :  No
  33.  
  34. *** Audio
  35. ID                                        :  2
  36. Format                                    :  AAC LC SBR
  37. Format/Info                               :  Advanced Audio Codec Low Complexity with Spectral Band Replication
  38. Commercial name                           :  HE-AAC
  39. Format settings                           :  Explicit
  40. Codec ID                                  :  A_AAC-2
  41. Duration                                  :  1 h 45 min
  42. Bit rate                                  :  288 kb/s
  43. Channel(s)                                :  7 channels
  44. Channel(s)_Original                       :  8 channels
  45. Channel layout                            :  C L R Ls Rs Lb Rb LFE
  46. Sampling rate                             :  48.0 kHz
  47. Frame rate                                :  23.438 FPS (2048 SPF)
  48. Compression mode                          :  Lossy
  49. Delay relative to video                   :  31 ms
  50. Stream size                               :  214 MiB (13%)
  51. Default                                   :  Yes
  52. Forced                                    :  No
  53.  
  54. *** Text
  55. ID                                        :  3
  56. Format                                    :  UTF-8
  57. Codec ID                                  :  S_TEXT/UTF8
  58. Codec ID/Info                             :  UTF-8 Plain Text
  59. Duration                                  :  1 h 37 min
  60. Bit rate                                  :  55 b/s
  61. Count of elements                         :  1288
  62. Stream size                               :  39.8 KiB (0%)
  63. Language                                  :  English
  64. Default                                   :  Yes
  65. Forced                                    :  No
RAW Paste Data
We use cookies for various purposes including analytics. By continuing to use Pastebin, you agree to our use of cookies as described in the Cookies Policy. OK, I Understand
 
Top