Advertisement
Guest User

Untitled

a guest
Oct 18th, 2017
599
0
Never
Not a member of Pastebin yet? Sign Up, it unlocks many cool features!
text 3.91 KB | None | 0 0
  1. General
  2. Complete name : Cats.1998.1080p.BluRay.H264.AAC-RARBG.mp4
  3. Format : MPEG-4
  4. Format profile : Base Media
  5. Codec ID : isom (isom/iso2/avc1/mp41)
  6. File size : 2.30 GiB
  7. Duration : 2 h 0 min
  8. Overall bit rate : 2 732 kb/s
  9. Movie name : Cats.1998.1080p.BluRay.H264.AAC-RARBG
  10. Encoded date : UTC 2016-10-26 16:50:57
  11. Tagged date : UTC 2016-10-26 16:50:57
  12. Writing application : Lavf56.40.101
  13. Comment : Cats.1998.1080p.BluRay.H264.AAC-RARBG
  14.  
  15. Video
  16. ID : 1
  17. Format : AVC
  18. Format/Info : Advanced Video Codec
  19. Format profile : High@L4.1
  20. Format settings, CABAC : Yes
  21. Format settings, RefFrames : 4 frames
  22. Codec ID : avc1
  23. Codec ID/Info : Advanced Video Coding
  24. Duration : 2 h 0 min
  25. Bit rate : 2 500 kb/s
  26. Width : 1 920 pixels
  27. Height : 1 080 pixels
  28. Display aspect ratio : 16:9
  29. Frame rate mode : Constant
  30. Frame rate : 23.976 (23976/1000) FPS
  31. Color space : YUV
  32. Chroma subsampling : 4:2:0
  33. Bit depth : 8 bits
  34. Scan type : Progressive
  35. Bits/(Pixel*Frame) : 0.050
  36. Stream size : 2.11 GiB (92%)
  37. Writing library : x264 core 148 r2638M 7599210
  38. Encoding settings : cabac=1 / ref=4 / deblock=1:-1:-1 / analyse=0x3:0x113 / me=umh / subme=9 / psy=1 / psy_rd=1.00:0.15 / mixed_ref=1 / me_range=24 / chroma_me=1 / trellis=2 / 8x8dct=1 / cqm=0 / deadzone=21,11 / fast_pskip=1 / chroma_qp_offset=-3 / threads=32 / lookahead_threads=4 / sliced_threads=0 / nr=0 / decimate=1 / interlaced=0 / bluray_compat=0 / constrained_intra=0 / bframes=3 / b_pyramid=2 / b_adapt=2 / b_bias=0 / direct=3 / weightb=1 / open_gop=0 / weightp=2 / keyint=250 / keyint_min=25 / scenecut=40 / intra_refresh=0 / rc_lookahead=50 / rc=2pass / mbtree=1 / bitrate=2500 / ratetol=1.0 / qcomp=0.60 / qpmin=0 / qpmax=69 / qpstep=4 / cplxblur=20.0 / qblur=0.5 / vbv_maxrate=31250 / vbv_bufsize=31250 / nal_hrd=none / filler=0 / ip_ratio=1.40 / aq=3:1.00
  39. Encoded date : UTC 2016-10-26 16:50:57
  40. Tagged date : UTC 2016-10-26 16:50:57
  41.  
  42. Audio
  43. ID : 2
  44. Format : AAC
  45. Format/Info : Advanced Audio Codec
  46. Format profile : LC
  47. Codec ID : 40
  48. Duration : 2 h 0 min
  49. Bit rate mode : Constant
  50. Bit rate : 224 kb/s
  51. Channel(s) : 2 channels
  52. Channel(s)_Original : 6 channels
  53. Channel positions : Front: L C R, Side: L R, LFE
  54. Sampling rate : 48.0 kHz
  55. Frame rate : 46.875 FPS (1024 SPF)
  56. Compression mode : Lossy
  57. Stream size : 193 MiB (8%)
  58. Default : Yes
  59. Alternate group : 1
  60. Encoded date : UTC 2016-10-26 16:50:57
  61. Tagged date : UTC 2016-10-26 16:50:57
Advertisement
Add Comment
Please, Sign In to add comment
Advertisement