Guest User

Full.Metal.Jacket.1987.MULTi.1080p.BluRay.x264-FiDELiO

a guest
May 22nd, 2019
75
Never
Not a member of Pastebin yet? Sign Up, it unlocks many cool features!
  1. General
  2. Unique ID                                : 337117339005990432617750047162128717149 (0xFD9E70136C65DB1A2DE755CB8B7CD55D)
  3. Complete name                            : Full.Metal.Jacket.1987.MULTi.1080p.BluRay.x264-FiDELiO.mkv
  4. Format                                   : Matroska
  5. Format version                           : Version 4
  6. File size                                : 9.84 GiB
  7. Duration                                 : 1 h 56 min
  8. Overall bit rate                         : 12.1 Mb/s
  9. Encoded date                             : UTC 2013-06-20 08:43:51
  10. Writing application                      : mkvmerge v6.2.0 ('Promised Land') built on May  6 2013 02:36:38
  11. Writing library                          : libebml v1.3.0 + libmatroska v1.4.0 / Lavf54.63.104
  12.  
  13. Video
  14. ID                                       : 1
  15. Format                                   : AVC
  16. Format/Info                              : Advanced Video Codec
  17. Format profile                           : High@L4.1
  18. Format settings                          : CABAC / 4 Ref Frames
  19. Format settings, CABAC                   : Yes
  20. Format settings, Reference frames        : 4 frames
  21. Codec ID                                 : V_MPEG4/ISO/AVC
  22. Duration                                 : 1 h 56 min
  23. Bit rate                                 : 11.0 Mb/s
  24. Width                                    : 1 920 pixels
  25. Height                                   : 1 080 pixels
  26. Display aspect ratio                     : 16:9
  27. Frame rate mode                          : Constant
  28. Frame rate                               : 23.976 (24000/1001) FPS
  29. Color space                              : YUV
  30. Chroma subsampling                       : 4:2:0
  31. Bit depth                                : 8 bits
  32. Scan type                                : Progressive
  33. Bits/(Pixel*Frame)                       : 0.221
  34. Stream size                              : 8.76 GiB (89%)
  35. Writing library                          : x264 core 133 r2334 a3ac64b
  36. Encoding settings                        : cabac=1 / ref=4 / deblock=1:0:0 / analyse=0x3:0x133 / me=umh / subme=10 / psy=1 / psy_rd=1.00:0.00 / mixed_ref=1 / me_range=24 / chroma_me=1 / trellis=2 / 8x8dct=1 / cqm=0 / deadzone=21,11 / fast_pskip=1 / chroma_qp_offset=-2 / threads=12 / lookahead_threads=2 / sliced_threads=0 / nr=0 / decimate=1 / interlaced=0 / bluray_compat=0 / constrained_intra=0 / bframes=8 / b_pyramid=2 / b_adapt=2 / b_bias=0 / direct=3 / weightb=1 / open_gop=0 / weightp=2 / keyint=250 / keyint_min=23 / scenecut=40 / intra_refresh=0 / rc_lookahead=60 / rc=2pass / mbtree=1 / bitrate=11002 / ratetol=1.0 / qcomp=0.60 / qpmin=0 / qpmax=69 / qpstep=4 / cplxblur=20.0 / qblur=0.5 / ip_ratio=1.40 / aq=1:1.00
  37. Default                                  : Yes
  38. Forced                                   : No
  39.  
  40. Audio #1
  41. ID                                       : 2
  42. Format                                   : AC-3
  43. Format/Info                              : Audio Coding 3
  44. Commercial name                          : Dolby Digital
  45. Codec ID                                 : A_AC3
  46. Duration                                 : 1 h 56 min
  47. Bit rate mode                            : Constant
  48. Bit rate                                 : 448 kb/s
  49. Channel(s)                               : 6 channels
  50. Channel layout                           : L R C LFE Ls Rs
  51. Sampling rate                            : 48.0 kHz
  52. Frame rate                               : 31.250 FPS (1536 SPF)
  53. Bit depth                                : 16 bits
  54. Compression mode                         : Lossy
  55. Delay relative to video                  : -83 ms
  56. Stream size                              : 373 MiB (4%)
  57. Title                                    : French audio
  58. Language                                 : French
  59. Service kind                             : Complete Main
  60. Default                                  : Yes
  61. Forced                                   : No
  62.  
  63. Audio #2
  64. ID                                       : 3
  65. Format                                   : AC-3
  66. Format/Info                              : Audio Coding 3
  67. Commercial name                          : Dolby Digital
  68. Codec ID                                 : A_AC3
  69. Duration                                 : 1 h 56 min
  70. Bit rate mode                            : Constant
  71. Bit rate                                 : 640 kb/s
  72. Channel(s)                               : 6 channels
  73. Channel layout                           : L R C LFE Ls Rs
  74. Sampling rate                            : 48.0 kHz
  75. Frame rate                               : 31.250 FPS (1536 SPF)
  76. Bit depth                                : 16 bits
  77. Compression mode                         : Lossy
  78. Delay relative to video                  : -83 ms
  79. Stream size                              : 533 MiB (5%)
  80. Title                                    : English audio
  81. Language                                 : English
  82. Service kind                             : Complete Main
  83. Default                                  : No
  84. Forced                                   : No
  85.  
  86. Text #1
  87. ID                                       : 4
  88. Format                                   : UTF-8
  89. Codec ID                                 : S_TEXT/UTF8
  90. Codec ID/Info                            : UTF-8 Plain Text
  91. Title                                    : French subtitles
  92. Language                                 : French
  93. Default                                  : No
  94. Forced                                   : No
  95.  
  96. Text #2
  97. ID                                       : 5
  98. Format                                   : UTF-8
  99. Codec ID                                 : S_TEXT/UTF8
  100. Codec ID/Info                            : UTF-8 Plain Text
  101. Title                                    : English subtitles
  102. Language                                 : English
  103. Default                                  : No
  104. Forced                                   : No
  105.  
  106. Text #3
  107. ID                                       : 6
  108. Format                                   : UTF-8
  109. Codec ID                                 : S_TEXT/UTF8
  110. Codec ID/Info                            : UTF-8 Plain Text
  111. Title                                    : English SDH
  112. Language                                 : English
  113. Default                                  : No
  114. Forced                                   : No
  115.  
  116. Menu
  117. 00:00:00.000                             : en:00:00:00.000
  118. 00:01:34.093                             : en:00:01:34.093
  119. 00:07:32.285                             : en:00:07:32.285
  120. 00:09:58.264                             : en:00:09:58.264
  121. 00:13:18.339                             : en:00:13:18.339
  122. 00:17:35.054                             : en:00:17:35.054
  123. 00:19:39.678                             : en:00:19:39.678
  124. 00:23:47.134                             : en:00:23:47.134
  125. 00:28:07.894                             : en:00:28:07.894
  126. 00:30:14.813                             : en:00:30:14.813
  127. 00:32:24.776                             : en:00:32:24.776
  128. 00:33:52.363                             : en:00:33:52.363
  129. 00:38:19.005                             : en:00:38:19.005
  130. 00:40:00.231                             : en:00:40:00.231
  131. 00:42:54.905                             : en:00:42:54.905
  132. 00:45:26.724                             : en:00:45:26.724
  133. 00:47:49.366                             : en:00:47:49.366
  134. 00:51:59.616                             : en:00:51:59.616
  135. 00:56:33.723                             : en:00:56:33.723
  136. 00:58:34.719                             : en:00:58:34.719
  137. 01:01:30.686                             : en:01:01:30.686
  138. 01:03:41.484                             : en:01:03:41.484
  139. 01:05:51.113                             : en:01:05:51.113
  140. 01:09:00.010                             : en:01:09:00.010
  141. 01:10:24.762                             : en:01:10:24.762
  142. 01:12:19.543                             : en:01:12:19.543
  143. 01:15:35.530                             : en:01:15:35.530
  144. 01:17:52.501                             : en:01:17:52.501
  145. 01:19:46.615                             : en:01:19:46.615
  146. 01:22:57.222                             : en:01:22:57.222
  147. 01:25:30.792                             : en:01:25:30.792
  148. 01:28:24.632                             : en:01:28:24.632
  149. 01:30:53.197                             : en:01:30:53.197
  150. 01:35:40.776                             : en:01:35:40.776
  151. 01:38:44.710                             : en:01:38:44.710
  152. 01:41:43.347                             : en:01:41:43.347
  153. 01:45:10.304                             : en:01:45:10.304
  154. 01:51:05.408                             : en:01:51:05.408
  155. 01:52:53.266                             : en:01:52:53.266
  156. 01:56:30.608                             : en:01:56:30.608
RAW Paste Data