SHARE
TWEET

Untitled

a guest Jul 17th, 2017 58 Never
Not a member of Pastebin yet? Sign Up, it unlocks many cool features!
  1. General
  2. Complete name                    : S:\video\movies\What Dreams May Come\What Dreams May Come.mkv
  3. Format                           : Matroska
  4. File size                        : 4.37 GiB
  5. Duration                         : 5h 4mn
  6. Overall bit rate                 : 2 054 Kbps
  7. Encoded date                     : UTC 2007-08-07 19:46:11
  8. Writing application              : mkvmerge v2.0.2 ('You're My Flame') built on Feb 21 2007 23:40:55
  9. Writing library                  : libebml v0.7.7 + libmatroska v0.8.1
  10.  
  11. Video
  12. ID                               : 1
  13. Format                           : AVC
  14. Format/Info                      : Advanced Video Codec
  15. Format profile                   : High@L5.1
  16. Format settings, CABAC           : Yes
  17. Format settings, ReFrames        : 8 frames
  18. Muxing mode                      : Container profile=Unknown@5.1
  19. Codec ID                         : V_MPEG4/ISO/AVC
  20. Duration                         : 5h 4mn
  21. Bit rate                         : 1 373 Kbps
  22. Nominal bit rate                 : 4 863 Kbps
  23. Width                            : 1 280 pixels
  24. Height                           : 528 pixels
  25. Display aspect ratio             : 2.40:1
  26. Frame rate                       : 23.976 fps
  27. Color space                      : YUV
  28. Chroma subsampling               : 4:2:0
  29. Bit depth                        : 8 bits
  30. Scan type                        : Progressive
  31. Bits/(Pixel*Frame)               : 0.085
  32. Stream size                      : 2.92 GiB (67%)
  33. Writing library                  : x264 core 56 svn-667C
  34. Encoding settings                : cabac=1 / ref=5 / deblock=1:-4:-4 / analyse=0x3:0x133 / me=umh / subme=6 / brdo=1 / mixed_ref=1 / me_range=16 / chroma_me=1 / trellis=1 / 8x8dct=1 / cqm=2 / deadzone=4,6 / chroma_qp_offset=0 / threads=3 / nr=0 / decimate=1 / mbaff=0 / bframes=3 / b_pyramid=1 / b_adapt=1 / b_bias=0 / direct=3 / wpredb=1 / bime=1 / keyint=250 / keyint_min=25 / scenecut=40(pre) / rc=2pass / bitrate=4863 / ratetol=1.0 / rceq='blurCplx^(1-qComp)' / qcomp=0.60 / qpmin=10 / qpmax=51 / qpstep=4 / cplxblur=20.0 / qblur=0.5 / ip_ratio=1.40 / pb_ratio=1.30 / aq=1:0.3:15.0
  35. Language                         : English
  36.  
  37. Audio
  38. ID                               : 2
  39. Format                           : AC-3
  40. Format/Info                      : Audio Coding 3
  41. Mode extension                   : CM (complete main)
  42. Codec ID                         : A_AC3
  43. Duration                         : 5h 4mn
  44. Bit rate mode                    : Constant
  45. Bit rate                         : 640 Kbps
  46. Channel(s)                       : 6 channels
  47. Channel positions                : Front: L C R, Side: L R, LFE
  48. Sampling rate                    : 48.0 KHz
  49. Bit depth                        : 16 bits
  50. Stream size                      : 1.36 GiB (31%)
  51. Language                         : English
  52.  
  53. Text
  54. ID                               : 3
  55. Format                           : UTF-8
  56. Codec ID                         : S_TEXT/UTF8
  57. Codec ID/Info                    : UTF-8 Plain Text
  58. Language                         : English
RAW Paste Data
Pastebin PRO Summer Special!
Get 60% OFF on Pastebin PRO accounts!
Top