GrabHD

Untitled

Feb 21st, 2020
93
Never
Not a member of Pastebin yet? Sign Up, it unlocks many cool features!
  1. Общее
  2. Уникальный идентификатор : 194937784285041714772694402210980374270 (0x92A7A6CF90E6C714A82397C0818B26FE)
  3. Полное имя : G:Torrent2Romantiki303BDRip720p.mkv
  4. Формат : Matroska
  5. Версия формата : Version 4 / Version 2
  6. Размер файла : 7,81 Гбайт
  7. Продолжительность : 2 ч. 24 м.
  8. Общий поток : 7754 Кбит/сек
  9. Дата кодирования : UTC 2020-02-13 20:36:41
  10. Программа кодирования : mkvmerge v9.5.0 ('Quiet Fire') 64bit
  11. Библиотека кодирования : libebml v1.3.4 + libmatroska v1.4.5
  12.  
  13. Видео
  14. Идентификатор : 1
  15. Формат : AVC
  16. Формат/Информация : Advanced Video Codec
  17. Профиль формата : High@L4.1
  18. Настройки формата : CABAC / 9 Ref Frames
  19. Параметр CABAC формата : Да
  20. Параметр RefFrames формата : 9 кадров
  21. Идентификатор кодека : V_MPEG4/ISO/AVC
  22. Продолжительность : 2 ч. 24 м.
  23. Битрейт : 6920 Кбит/сек
  24. Ширина : 1280 пикселей
  25. Высота : 694 пикселя
  26. Соотношение сторон : 1,85:1
  27. Режим частоты кадров : Постоянный
  28. Частота кадров : 24,000 кадра/сек
  29. Цветовое пространство : YUV
  30. Субдискретизация насыщенности : 4:2:0
  31. Битовая глубина : 8 бит
  32. Тип развёртки : Прогрессивная
  33. Бит/(Пиксели*Кадры) : 0.325
  34. Размер потока : 6,97 Гбайт (89%)
  35. Заголовок : Sisendrovich(R)
  36. Библиотека кодирования : x264 core 159 r2991 1771b55
  37. Настройки программы : cabac=1 / ref=9 / deblock=1:-1:-1 / analyse=0x3:0x133 / me=tesa / subme=11 / psy=1 / psy_rd=1.00:0.00 / mixed_ref=1 / me_range=32 / chroma_me=1 / trellis=2 / 8x8dct=1 / cqm=0 / deadzone=21,11 / fast_pskip=0 / chroma_qp_offset=-2 / threads=22 / lookahead_threads=5 / sliced_threads=0 / nr=0 / decimate=0 / interlaced=0 / bluray_compat=0 / constrained_intra=0 / bframes=10 / b_pyramid=2 / b_adapt=2 / b_bias=0 / direct=3 / weightb=1 / open_gop=0 / weightp=2 / keyint=240 / keyint_min=23 / scenecut=40 / intra_refresh=0 / rc_lookahead=60 / rc=2pass / mbtree=0 / bitrate=6920 / ratetol=1.0 / qcomp=0.70 / qpmin=0 / qpmax=69 / qpstep=4 / cplxblur=20.0 / qblur=0.5 / vbv_maxrate=50000 / vbv_bufsize=62500 / nal_hrd=none / filler=0 / ip_ratio=1.40 / pb_ratio=1.30 / aq=3:0.80
  38. Язык : German
  39. Default : Да
  40. Forced : Нет
  41.  
  42. Аудио #1
  43. Идентификатор : 2
  44. Формат : AC-3
  45. Формат/Информация : Audio Coding 3
  46. Параметр Endianness формата : Big
  47. Идентификатор кодека : A_AC3
  48. Продолжительность : 2 ч. 24 м.
  49. Вид битрейта : Постоянный
  50. Битрейт : 384 Кбит/сек
  51. Каналы : 6 каналов
  52. Расположение каналов : Front: L C R, Side: L R, LFE
  53. Частота : 48,0 КГц
  54. Частота кадров : 31,250 кадров/сек (1536 SPF)
  55. Битовая глубина : 16 бит
  56. Метод сжатия : С потерями
  57. Размер потока : 396 Мбайт (5%)
  58. Заголовок : rus
  59. Язык : Russian
  60. Default : Да
  61. Forced : Нет
  62.  
  63. Аудио #2
  64. Идентификатор : 3
  65. Формат : AC-3
  66. Формат/Информация : Audio Coding 3
  67. Параметр Endianness формата : Big
  68. Идентификатор кодека : A_AC3
  69. Продолжительность : 2 ч. 24 м.
  70. Вид битрейта : Постоянный
  71. Битрейт : 448 Кбит/сек
  72. Каналы : 6 каналов
  73. Расположение каналов : Front: L C R, Side: L R, LFE
  74. Частота : 48,0 КГц
  75. Частота кадров : 31,250 кадров/сек (1536 SPF)
  76. Битовая глубина : 16 бит
  77. Метод сжатия : С потерями
  78. Размер потока : 462 Мбайт (6%)
  79. Заголовок : ger
  80. Язык : German
  81. Default : Нет
  82. Forced : Нет
  83.  
  84. Меню
  85. 00:00:00.000 : en:Chapter 1
  86. 00:10:58.500 : en:Chapter 2
  87. 00:23:59.041 : en:Chapter 3
  88. 00:36:17.166 : en:Chapter 4
  89. 00:47:21.375 : en:Chapter 5
  90. 01:00:06.958 : en:Chapter 6
  91. 01:11:55.625 : en:Chapter 7
  92. 01:23:28.791 : en:Chapter 8
  93. 01:35:52.458 : en:Chapter 9
  94. 01:46:33.083 : en:Chapter 10
  95. 01:59:08.958 : en:Chapter 11
  96. 02:10:45.541 : en:Chapter 12
  97. 02:21:06.041 : en:Chapter 13
RAW Paste Data